Основание армии / The Founding of an Army / Jian jun da ye (2017) BDRip 1080p | L

 
Author Message

BOSS ®

Gender:

Longevity: 4 years 7 months

Posts: 14094

Location: ODESSA



: 22 ()

Mega Seeder 2 (1) Top Releaser 3 (1) Mega Seeder 5 (1)
Торрент-статистика

Post 10-Jun-2018 06:59

[Quote]

Информация о фильме
Название: Основание армии
Оригинальное название: The Founding of an Army / Jian jun da ye
Год выхода: 2017
Жанр: Драма, история, военный
Режиссер: Эндрю Лау
В ролях: Лю Е, Явэнь Чжу, Лу Хан, Крис У, Исин Чжан, Тони Люн Ка-фай, Алекс Фон, Бай Кэ, Итан Ли, Шу Ци, Сун Цзя, Уоллес Хо, Джонни Бай, Тони Ян, Лэй Чжан, Ифэн Ли, Рэй Ма, Ван Чжао, Хуан Шанхо, Или Ма
О фильме:
Весной 1927 года Чан Кайши предал революцию. В ходе жестоких партийных чисток, вошедших в историю КНР как «шанхайская резня», коммунисты и им сочувствующие были удалены из рядов Гоминьдана. Или почти удалены.1 августа 1927 года революционные части гоминьдановской армии, а также примкнувшие к ним рабочие дружины и крестьянские отряды самообороны, подняли мятеж и захватили гарнизон в городе Наньчан. С тех пор 1 августа 1927 года отмечается в КНР как день рождения Народно-освободительной армии Китая. Красной Армии.

Страна: Китай, Гонконг
Студия: August 1st Film Studio
Продолжительность: 02:13:04
Перевод: Любительский многоголосый
(Перевод с китайского: FSG #404 и Aeterna temple, [Горчица, Nirvana, Аля Ру, Emilia the Strange, FoxyJazz и Colochka], редакция: Горчица, сверка с оригиналом: Шао Лу и Curly, тайминг: Xingnee, Горчица, координация проекта: Горчица и Фрези Грант, озвучка: студия "Колобок", "XDUB DORAMA" и "LOVELY VOX", закадровый текст читали: Den904, Izanami, Lе Сhеvаliеr, Elrid, DeadSno, тайминг и обработка звука: Lе Сhеvаliеr)
Примечание: Фильм переведён при содействии группы "Китайские фильмы и сериалы" и при поддержке фан-сообществ Чжан Исина, Ма Тяньюя и Уоллеса Хо.
Файл
Кодек: x.264
Качество: BDRip 1080p
Видео: MPEG-4 AVC, 1920x804, 14.6 Mбит/с, 24.000 кадр/с
Аудио #1: Русский ( АС3, 6ch, 448Кбит/с, 48.0 KHz) Любительский (многоголосый, закадровый) Студия Колобок, XDUB DORAMA & LOVELY VOX
Аудио #2: Китайский ( АС3, 6ch, 448Кбит/с, 48.0 KHz)
Субтитры: китайские
Трейлер

MediaInfo

Источник: The.Founding.of.an.Army.2017.1080p.BluRay.x264.DTS-WiKi
General
Unique ID : 244797501342684300781022412199168875601 (0xB82A48A8149C36F1A52D26D6ADAC9C51)
Complete name : The.Founding.of.an.Army.2017.BDRip.1080p.mkv
Format : Matroska
Format version : Version 4 / Version 2
File size : 14.4 GiB
Duration : 2 h 13 min
Overall bit rate : 15.5 Mb/s
Movie name : Jubowo @ WiKi
Encoded date : UTC 2018-05-28 13:56:28
Writing application : mkvmerge v7.1.0 ('Good Love') 64bit built on Jul 27 2014 13:06:55
Writing library : libebml v1.3.0 + libmatroska v1.4.1
Video
ID : 1
Format : AVC
Format/Info : Advanced Video Codec
Format profile : High@L4.1
Format settings : CABAC / 5 Ref Frames
Format settings, CABAC : Yes
Format settings, ReFrames : 5 frames
Codec ID : V_MPEG4/ISO/AVC
Duration : 2 h 13 min
Bit rate : 14.6 Mb/s
Width : 1 920 pixels
Height : 804 pixels
Display aspect ratio : 2.40:1
Frame rate mode : Constant
Frame rate : 24.000 FPS
Color space : YUV
Chroma subsampling : 4:2:0
Bit depth : 8 bits
Scan type : Progressive
Bits/(Pixel*Frame) : 0.395
Stream size : 13.6 GiB (94%)
Writing library : x264 core 129 r2245 bc13772
Encoding settings : cabac=1 / ref=5 / deblock=1:-3:-3 / analyse=0x3:0x133 / me=umh / subme=11 / psy=1 / psy_rd=1.05:0.05 / mixed_ref=1 / me_range=64 / chroma_me=1 / trellis=2 / 8x8dct=1 / cqm=0 / deadzone=21,11 / fast_pskip=0 / chroma_qp_offset=-3 / threads=12 / lookahead_threads=2 / sliced_threads=0 / nr=0 / decimate=1 / interlaced=0 / bluray_compat=0 / constrained_intra=0 / bframes=8 / b_pyramid=2 / b_adapt=2 / b_bias=0 / direct=3 / weightb=1 / open_gop=0 / weightp=2 / keyint=250 / keyint_min=24 / scenecut=40 / intra_refresh=0 / rc_lookahead=60 / rc=2pass / mbtree=1 / bitrate=14627 / ratetol=1.0 / qcomp=0.60 / qpmin=0 / qpmax=69 / qpstep=4 / cplxblur=20.0 / qblur=0.5 / vbv_maxrate=40000 / vbv_bufsize=30000 / nal_hrd=none / ip_ratio=1.40 / aq=1:0.80
Language : English
Default : Yes
Forced : No
Audio #1
ID : 2
Format : AC-3
Format/Info : Audio Coding 3
Codec ID : A_AC3
Duration : 2 h 13 min
Bit rate mode : Constant
Bit rate : 448 kb/s
Channel(s) : 6 channels
Channel positions : Front: L C R, Side: L R, LFE
Sampling rate : 48.0 kHz
Frame rate : 31.250 FPS (1536 SPF)
Bit depth : 16 bits
Compression mode : Lossy
Stream size : 426 MiB (3%)
Language : Russian
Service kind : Complete Main
Default : Yes
Forced : No
Audio #2
ID : 3
Format : AC-3
Format/Info : Audio Coding 3
Codec ID : A_AC3
Duration : 2 h 13 min
Bit rate mode : Constant
Bit rate : 448 kb/s
Channel(s) : 6 channels
Channel positions : Front: L C R, Side: L R, LFE
Sampling rate : 48.0 kHz
Frame rate : 31.250 FPS (1536 SPF)
Bit depth : 16 bits
Compression mode : Lossy
Stream size : 426 MiB (3%)
Language : Chinese
Service kind : Complete Main
Default : No
Forced : No
Text #1
ID : 4
Format : UTF-8
Codec ID : S_TEXT/UTF8
Codec ID/Info : UTF-8 Plain Text
Duration : 2 h 5 min
Bit rate : 40 b/s
Count of elements : 1844
Stream size : 36.9 KiB (0%)
Title : 简体
Language : Chinese
Default : No
Forced : No
Text #2
ID : 5
Format : UTF-8
Codec ID : S_TEXT/UTF8
Codec ID/Info : UTF-8 Plain Text
Duration : 2 h 5 min
Bit rate : 40 b/s
Count of elements : 1844
Stream size : 36.9 KiB (0%)
Title : 繁体
Language : Chinese
Default : No
Forced : No
Menu
00:00:00.000 : en:00:00:00.000
00:07:02.375 : en:00:07:02.375
00:17:58.250 : en:00:17:58.250
00:24:09.125 : en:00:24:09.125
00:33:27.541 : en:00:33:27.541
00:40:45.375 : en:00:40:45.375
00:46:42.291 : en:00:46:42.291
00:54:04.083 : en:00:54:04.083
01:02:15.708 : en:01:02:15.708
01:12:07.625 : en:01:12:07.625
01:19:02.250 : en:01:19:02.250
01:24:39.708 : en:01:24:39.708
01:31:12.875 : en:01:31:12.875
01:36:12.208 : en:01:36:12.208
01:45:35.458 : en:01:45:35.458
01:53:39.833 : en:01:53:39.833
02:03:29.666 : en:02:03:29.666
02:08:27.625 : en:02:08:27.625
[Profile] [PM]
Кто просматривает тему:

Forum Topic Author Size
Компьютерная литература (Программирование) Developmentor - Бошемин Б. - Основы ADO.NET [2003, DjVu, RUS] TorrentFilm 21 MB
Adobe Photoshop Алексей Захаренко - Основы Photoshop с нуля от А до Я или Освой Photoshop за 1 день - 1 часть. Обучающий видеокурс (2012) PCRec sergej644 4.98 GB
Боевики, детективы, триллеры Джон Ширли - Гримм. Ледяное прикосновение (2016) FB2 Swager 1 MB
Военное дело, авиация и вооружение Иван Павлов, Михаил Павлов - Основной танк Т-80. Безмолвное возмездие (2017) PDF BOSS 38 MB
Консультант Плюс Консультант Плюс. Региональная сборка от 01.01.2015 на основе ТМ VR401271 (FIX) и НЕоригинальных криптованных DIN (2015) [Rus] Ruvest 114.36 GB
Разная литература Крейс В. - Кирпичная кладка. Основы (2015) FB2, RTF достали все 14 MB
Научная и техническая литература Курякова Н.Б., Шептуха Т.С. - Основы проектирования скатных крыш и мансард (2016) PDF достали все 45 MB
Разное Медведев А.Н. - Скоростной бой. Боевые связки без оружия, основанные на ударах (1997) DjVu sergej644 18 MB
Display posts from previous:    

The time now is: Today 11:36

All times are GMT



You cannot post new topics in this forum
You cannot reply to topics in this forum
You cannot edit your posts in this forum
You cannot delete your posts in this forum
You cannot vote in polls in this forum
You cannot attach files in this forum
You cannot download files in this forum