Ее алиби / Her Alibi (1989) WEB-DL 720p | D, P

 
Author Message

BOSS ®

Gender:

Longevity: 4 years 7 months

Posts: 14094

Location: ODESSA



: 22 ()

Top Seeder 4 (1) Mega Seeder 1 (1) Mega Releaser 1 (1)
Торрент-статистика

Post 09-Jun-2018 16:22

[Quote]

Информация о фильме
Название: Ее алиби
Оригинальное название: Her Alibi
Год выхода: 1989
Жанр: мелодрама, комедия, криминал, детектив
Режиссер: Брюс Бересфорд
В ролях: Том Селлек, Паулина Поризкова, Уильям Дэниелс, Джеймс Фарентино, Херд Хэтфилд, Рональд Гаттмен, Виктор Арго, Патрик Уэйн, Тесс Харпер, Билл Смитрович
Описание: На писателя Филлипа Блэквуда, сочинителя детективных романов, обрушилось несчастье величиной с Манхеттен: он утратил способность писать. С отчаяния он начал посещать залы судебных заседаний в поисках озарения и был сражен наповал.
Загадочная красавица-румынка, подозреваемая в убийстве, пробудила в нем и творческие, и романтические импульсы. Блэквуд обеспечивает ее алиби и уносится с ней в свой дом в штате Коннектикут. Теперь она в безопасности.

Страна: США
Продолжительность: 01:34:12
Перевод 1: Профессиональный (дублированный) Варус Видео
Перевод 2: Профессиональный (многоголосый, закадровый) НТВ+
Оригинальная аудиодорожка: английский
Cубтитры: русские
Файл
Кодек: MPEG4
Качество: WEB-DL 720p
Видео: 1278x720 at 23.976 fps, ~4061 kbps avg
Аудио 1: Russian: 48 kHz, AC3, 2/0 (L,R) ch, ~192 kbps avg |Дубляж, Варус-Видео|
Аудио 2: Russian: 48 kHz, AC3, 2/0 (L,R) ch, ~256 kbps avg |Многоголосый, НТВ+|
Аудио 3: English: 48 kHz, AAC, 2/0 (L,R) ch, ~158 kbps avg |Original, iTunes|

Скриншоты

MediaInfo

General
Unique ID : 218931731654427099552314794772984953421 (0xA4B4B7C03B741654ABF4D7EA9F6AFA4D)
Complete name : Her.Alibi.1989.720p.WEB-DL.2xRus.Eng.mkv
Format : Matroska
Format version : Version 4 / Version 2
File size : 3.07 GiB
Duration : 1h 34mn
Overall bit rate : 4 670 Kbps
Movie name : Её алиби / Her Alibi (1989)
Encoded date : UTC 2016-04-01 06:55:50
Writing application : mkvmerge v8.9.0 ('Father Daughter') 64bit
Writing library : libebml v1.3.3 + libmatroska v1.4.4
Cover : Yes
Attachments : cover.jpg
Video
ID : 1
Format : AVC
Format/Info : Advanced Video Codec
Format profile : High@L3.1
Format settings, CABAC : No
Format settings, ReFrames : 2 frames
Format settings, GOP : N=1
Codec ID : V_MPEG4/ISO/AVC
Duration : 1h 34mn
Bit rate : 4 061 Kbps
Width : 1 278 pixels
Height : 720 pixels
Display aspect ratio : 16:9
Frame rate mode : Variable
Frame rate : 23.976 fps
Color space : YUV
Chroma subsampling : 4:2:0
Bit depth : 8 bits
Scan type : Progressive
Bits/(Pixel*Frame) : 0.184
Stream size : 2.67 GiB (87%)
Title : Её алиби / Her Alibi (1989) WEB-DL 720p
Language : English
Default : Yes
Forced : No
Color range : Limited
Color primaries : BT.709
Transfer characteristics : BT.709
Matrix coefficients : BT.709
Audio #1
ID : 2
Format : AC-3
Format/Info : Audio Coding 3
Mode extension : CM (complete main)
Format settings, Endianness : Big
Codec ID : A_AC3
Duration : 1h 34mn
Bit rate mode : Constant
Bit rate : 192 Kbps
Channel(s) : 2 channels
Channel positions : Front: L R
Sampling rate : 48.0 KHz
Frame rate : 31.250 fps (1536 spf)
Compression mode : Lossy
Stream size : 129 MiB (4%)
Title : Дубляж, Варус Видео
Language : Russian
Default : Yes
Forced : No
Audio #2
ID : 3
Format : AC-3
Format/Info : Audio Coding 3
Mode extension : CM (complete main)
Format settings, Endianness : Big
Codec ID : A_AC3
Duration : 1h 34mn
Bit rate mode : Constant
Bit rate : 256 Kbps
Channel(s) : 2 channels
Channel positions : Front: L R
Sampling rate : 48.0 KHz
Frame rate : 31.250 fps (1536 spf)
Compression mode : Lossy
Stream size : 172 MiB (5%)
Title : Многоголосый, НТВ+
Language : Russian
Default : No
Forced : No
Audio #3
ID : 4
Format : AAC
Format/Info : Advanced Audio Codec
Format profile : LC
Codec ID : A_AAC
Duration : 1h 34mn
Bit rate : 158 Kbps
Channel(s) : 2 channels
Channel positions : Front: L R
Sampling rate : 48.0 KHz
Frame rate : 46.875 fps (1024 spf)
Compression mode : Lossy
Stream size : 107 MiB (3%)
Language : English
Default : No
Forced : No
Text
ID : 5
Format : UTF-8
Codec ID : S_TEXT/UTF8
Codec ID/Info : UTF-8 Plain Text
Duration : 1h 28mn
Bit rate : 99 bps
Count of elements : 1168
Stream size : 64.3 KiB (0%)
Language : Russian
Default : No
Forced : No
Menu
00:00:00.000 : en:Bookshelf Credits
00:02:16.000 : en:All he wrote
00:06:13.000 : en:Courtroom inspiration
00:08:49.000 : en:Begging for assistance
00:11:11.000 : en:Father Phil
00:16:36.000 : en:Her alibi
00:19:52.000 : en:Home sweet hideout
00:22:16.000 : en:Nina's pest control
00:23:27.000 : en:What if?
00:29:08.000 : en:Accidents happen
00:33:21.000 : en:Dicey but promising
00:35:34.000 : en:The jump on her pursuers
00:36:59.000 : en:Haircut...or close shave?
00:40:31.000 : en:Wet passion
00:43:57.000 : en:Archery lesson
00:46:57.000 : en:Wild ride
00:49:28.000 : en:The normal relationship
00:53:13.000 : en:Basis in fact
00:56:48.000 : en:Language of love
01:00:35.000 : en:So do most murders
01:02:01.000 : en:Rooftop rescue
01:06:56.000 : en:The word for it
01:08:09.000 : en:From dinner party...
01:11:16.000 : en:...to Last Supper?
01:15:31.000 : en:The cat's tale
01:20:14.000 : en:The road to unpredictable
01:22:16.000 : en:Clowning around with the KGB
01:28:52.000 : en:Bugs make Phil nervous
01:30:27.000 : en:End Credits (Falling in Love)
[Profile] [PM]
Кто просматривает тему:

Display posts from previous:    

The time now is: Today 11:40

All times are GMT



You cannot post new topics in this forum
You cannot reply to topics in this forum
You cannot edit your posts in this forum
You cannot delete your posts in this forum
You cannot vote in polls in this forum
You cannot attach files in this forum
You cannot download files in this forum