Безжалостный / The Merciless / Boolhandang (2017) BDRip 1080p | L2

 
Author Message

BOSS ®

Gender:

Longevity: 4 years 7 months

Posts: 14094

Location: ODESSA



: 22 ()

Mega Seeder 1 (1) Mega Seeder 3 (1) Top Seeder 5 (1)
Торрент-статистика

Post 09-Jun-2018 10:00

[Quote]

Информация о фильме
Название: Безжалостный (Беспощадный)
Оригинальное название: The Merciless (Bulhandang)
Год выхода: 2017
Жанр: Драма, боевик, криминал
Режиссер: Пён Сон-хён
В ролях: Гён Гу Соль, Си Ван Им, Хи Вон Ким, Хе Чжин Чон (I), Кён Ён Ли, Сон О Ким, Ин Соп Чан, Бён Мо Чхве, Джун Хо Хо, Чжи Хун Ким (IV), Чжи Хун Ли (III)
О фильме:
Джэ Хо - являясь одним из самых крутых бандитов, отбывает свой срок в тюрьме. Среди заключенных он обладает большой властью, диктуя свои правила и капризы и его авторитет непререкаем. За пределами тюрьмы, в преступной группировке, Джэ Хо является вторым номером и он достаточно амбициозен, чтобы желать стать номером один, намереваясь без особых проблем захватить власть сразу же после своего освобождения. Однажды в тюрьме появляется новый сиделец Хён Су — молодой, борзый и непокорный. Джэ Хо берёт его под свою опеку, планируя взять в банду после отсидки.

Страна: Южная Корея
Студия: CJ Entertainment
Продолжительность: 02:00:25
Перевод: Любительский (двухголосый закадровый) [den904 & DeadSno]

Файл
Кодек: x.264
Качество: BDRip 1080p
Видео: MPEG-4 AVC, 1920x804, 14.0 Mбит/с, 23.976 кадр/с
Звук:
Аудио #1: Русский ( АС3, 2ch, 224Кбит/с, 48.0 KHz) Любительский (двухголосый, закадровый) den904 & DeadSno
Аудио #2: Корейский ( АС3, 6ch, 384Кбит/с, 48.0 KHz)
Субтитры: английские
Трейлер

MediaInfo

Источник: The.Merciless.2017.KOREAN.1080p.BluRay.x264.DTS-HDC
General
Unique ID : 233820070471149104982632503497927746960 (0xAFE81B87361D370495D02E1E20C4E590)
Complete name : The.Merciless.2017.BDRip.1080p.mkv
Format : Matroska
Format version : Version 4 / Version 2
File size : 12.3 GiB
Duration : 2 h 0 min
Overall bit rate : 14.6 Mb/s
Encoded date : UTC 2018-06-07 20:13:16
Writing application : mkvmerge v7.1.0 ('Good Love') 64bit built on Jul 27 2014 13:06:55
Writing library : libebml v1.3.0 + libmatroska v1.4.1
Video
ID : 1
Format : AVC
Format/Info : Advanced Video Codec
Format profile : High@L4.1
Format settings : CABAC / 5 Ref Frames
Format settings, CABAC : Yes
Format settings, ReFrames : 5 frames
Codec ID : V_MPEG4/ISO/AVC
Duration : 2 h 0 min
Bit rate : 14.0 Mb/s
Width : 1 920 pixels
Height : 804 pixels
Display aspect ratio : 2.40:1
Frame rate mode : Constant
Frame rate : 23.976 (24000/1001) FPS
Color space : YUV
Chroma subsampling : 4:2:0
Bit depth : 8 bits
Scan type : Progressive
Bits/(Pixel*Frame) : 0.378
Stream size : 11.8 GiB (96%)
Writing library : x264 core 142 r2431+42 c69a006 tMod [8-bit@all X86_64]
Encoding settings : cabac=1 / ref=5 / deblock=1:-3:-3 / analyse=0x3:0x133 / me=umh / subme=7 / psy=1 / fade_compensate=0.00 / psy_rd=1.10:0.00 / mixed_ref=1 / me_range=64 / chroma_me=1 / trellis=2 / 8x8dct=1 / cqm=0 / deadzone=21,11 / fast_pskip=0 / chroma_qp_offset=-2 / threads=12 / lookahead_threads=2 / sliced_threads=0 / nr=0 / decimate=0 / interlaced=0 / bluray_compat=0 / constrained_intra=0 / fgo=0 / bframes=12 / b_pyramid=2 / b_adapt=2 / b_bias=0 / direct=3 / weightb=1 / open_gop=0 / weightp=2 / keyint=240 / keyint_min=24 / scenecut=40 / intra_refresh=0 / rc_lookahead=40 / rc=2pass / mbtree=0 / bitrate=14000 / ratetol=1.0 / qcomp=0.70 / qpmin=0:0:0 / qpmax=69:69:69 / qpstep=4 / cplxblur=20.0 / qblur=0.5 / vbv_maxrate=50000 / vbv_bufsize=45000 / nal_hrd=none / filler=0 / ip_ratio=1.25 / pb_ratio=1.15 / aq=3:0.90 / aq-sensitivity=10.00 / aq-factor=1.00:1.00:1.00 / aq2=0 / aq3=0
Language : Korean
Default : Yes
Forced : No
Audio #1
ID : 2
Format : AC-3
Format/Info : Audio Coding 3
Codec ID : A_AC3
Duration : 2 h 0 min
Bit rate mode : Constant
Bit rate : 224 kb/s
Channel(s) : 2 channels
Channel positions : Front: L R
Sampling rate : 48.0 kHz
Frame rate : 31.250 FPS (1536 SPF)
Bit depth : 16 bits
Compression mode : Lossy
Stream size : 193 MiB (2%)
Language : Russian
Service kind : Complete Main
Default : Yes
Forced : No
Audio #2
ID : 3
Format : AC-3
Format/Info : Audio Coding 3
Codec ID : A_AC3
Duration : 2 h 0 min
Bit rate mode : Constant
Bit rate : 384 kb/s
Channel(s) : 6 channels
Channel positions : Front: L C R, Side: L R, LFE
Sampling rate : 48.0 kHz
Frame rate : 31.250 FPS (1536 SPF)
Bit depth : 16 bits
Compression mode : Lossy
Stream size : 331 MiB (3%)
Language : Korean
Service kind : Complete Main
Default : No
Forced : No
Text
ID : 4
Format : UTF-8
Codec ID : S_TEXT/UTF8
Codec ID/Info : UTF-8 Plain Text
Duration : 1 h 56 min
Bit rate : 32 b/s
Count of elements : 1101
Stream size : 27.9 KiB (0%)
Language : English
Default : No
Forced : No
Menu
00:00:00.000 : en:00:00:00.000
00:07:01.880 : en:00:07:01.880
00:18:02.999 : en:00:18:02.999
00:22:44.363 : en:00:22:44.363
00:34:51.798 : en:00:34:51.798
00:45:40.613 : en:00:45:40.613
00:56:21.003 : en:00:56:21.003
01:05:33.972 : en:01:05:33.972
01:13:14.265 : en:01:13:14.265
01:23:39.139 : en:01:23:39.139
01:32:25.665 : en:01:32:25.665
01:41:43.014 : en:01:41:43.014
01:51:14.543 : en:01:51:14.543
01:56:42.913 : en:01:56:42.913

Скриншоты

[Profile] [PM]
Display posts from previous:    

The time now is: Today 11:51

All times are GMT



You cannot post new topics in this forum
You cannot reply to topics in this forum
You cannot edit your posts in this forum
You cannot delete your posts in this forum
You cannot vote in polls in this forum
You cannot attach files in this forum
You cannot download files in this forum