Не в себе / Unsane (2018) BDRip 1080p | P

 
Автор Сообщение

BOSS ®

Пол:

Стаж: 4 года 1 месяц

Сообщений: 12442

Откуда: ODESSA



Награды: 22 (Подробнее)

Top Seeder 3 (Количество: 1) Top Seeder 5 (Количество: 1) Mega Releaser 2 (Количество: 1)
Торрент-статистика

Создавать темы 06-Июн-2018 14:21

[Цитировать]

Информация о фильме
Название: Не в себе
Оригинальное название: Unsane
Год выхода: 2018
Жанр: Триллер, ужасы
Режиссер: Стивен Содерберг
В ролях: Джошуа Леонард, Клер Фой, Сара Стайлс, Марк Кадиш, Эми Ирвинг, Колин Вуделл, Мира Лукреция Тейлор, Линда Моз, Зак Черри, Полли МакКи
О фильме:
Девушка покидает родной город, чтобы сбежать от проблемного прошлого и найти новую работу. Но когда она не по своей воле оказывается в психиатрическом учреждении, ей приходится столкнуться со своим самым большим страхом. Но реален ли он, или это — просто плод ее воображения? Героине кажется, что никто не верит ей, а власти не могут или не хотят помочь, поэтому она должна в одиночку противостоять своим страхам.

Страна: США
Студия: Extension 765, New Regency Pictures
Продолжительность: 01:38:11
Перевод: Профессиональный многоголосый [HDrezka Studio]
Файл
Кодек: x.264
Качество: BDRip 1080p
Видео: MPEG-4 AVC, 1696x1080, 9646 Kбит/с, 23.976 кадр/с
Звук:
Аудио #1: Русский ( АС3, 2ch, 384Кбит/с, 48.0 KHz) Профессиональный (многоголосый, закадровый) HDrezka Studio
Аудио #2: Английский ( АС3, 6ch, 384Кбит/с, 48.0 KHz)
Субтитры: нет
Трейлер

MediaInfo

Источник: Unsane.2018.1080p.BluRay.x264-DRONES
General
Unique ID : 251143403361546976157958509366677656620 (0xBCF075C841D88994B6531D7C7F08D42C)
Complete name : Unsane.2018.BDRip.1080p.mkv
Format : Matroska
Format version : Version 4 / Version 2
File size : 7.14 GiB
Duration : 1 h 38 min
Overall bit rate : 10.4 Mb/s
Encoded date : UTC 2018-06-06 10:13:16
Writing application : mkvmerge v7.1.0 ('Good Love') 64bit built on Jul 27 2014 13:06:55
Writing library : libebml v1.3.0 + libmatroska v1.4.1
Video
ID : 1
Format : AVC
Format/Info : Advanced Video Codec
Format profile : High@L4.1
Format settings : CABAC / 4 Ref Frames
Format settings, CABAC : Yes
Format settings, ReFrames : 4 frames
Codec ID : V_MPEG4/ISO/AVC
Duration : 1 h 38 min
Bit rate : 9 646 kb/s
Width : 1 696 pixels
Height : 1 080 pixels
Display aspect ratio : 16:10
Frame rate mode : Constant
Frame rate : 23.976 FPS
Color space : YUV
Chroma subsampling : 4:2:0
Bit depth : 8 bits
Scan type : Progressive
Bits/(Pixel*Frame) : 0.220
Stream size : 6.62 GiB (93%)
Writing library : x264 core 155 r2901 7d0ff22
Encoding settings : cabac=1 / ref=4 / deblock=1:0:0 / analyse=0x3:0x133 / me=umh / subme=7 / psy=1 / psy_rd=1.00:0.00 / mixed_ref=1 / me_range=16 / chroma_me=1 / trellis=1 / 8x8dct=1 / cqm=0 / deadzone=21,11 / fast_pskip=0 / chroma_qp_offset=-2 / threads=30 / lookahead_threads=5 / sliced_threads=0 / nr=0 / decimate=1 / interlaced=0 / bluray_compat=0 / constrained_intra=0 / bframes=3 / b_pyramid=2 / b_adapt=1 / b_bias=0 / direct=1 / weightb=1 / open_gop=0 / weightp=2 / keyint=250 / keyint_min=23 / scenecut=40 / intra_refresh=0 / rc_lookahead=40 / rc=2pass / mbtree=1 / bitrate=9646 / ratetol=1.0 / qcomp=0.60 / qpmin=0 / qpmax=69 / qpstep=4 / cplxblur=20.0 / qblur=0.5 / ip_ratio=1.40 / aq=1:1.00
Language : English
Default : Yes
Forced : No
Audio #1
ID : 2
Format : AC-3
Format/Info : Audio Coding 3
Codec ID : A_AC3
Duration : 1 h 38 min
Bit rate mode : Constant
Bit rate : 384 kb/s
Channel(s) : 2 channels
Channel positions : Front: L R
Sampling rate : 48.0 kHz
Frame rate : 31.250 FPS (1536 SPF)
Bit depth : 16 bits
Compression mode : Lossy
Stream size : 270 MiB (4%)
Language : Russian
Service kind : Complete Main
Default : Yes
Forced : No
Audio #2
ID : 3
Format : AC-3
Format/Info : Audio Coding 3
Codec ID : A_AC3
Duration : 1 h 38 min
Bit rate mode : Constant
Bit rate : 384 kb/s
Channel(s) : 6 channels
Channel positions : Front: L C R, Side: L R, LFE
Sampling rate : 48.0 kHz
Frame rate : 31.250 FPS (1536 SPF)
Bit depth : 16 bits
Compression mode : Lossy
Stream size : 270 MiB (4%)
Language : English
Service kind : Complete Main
Default : No
Forced : No
Menu
00:00:00.000 : en:00:00:00.000
00:05:40.257 : en:00:05:40.257
00:10:21.913 : en:00:10:21.913
00:14:24.697 : en:00:14:24.697
00:19:26.332 : en:00:19:26.332
00:24:46.235 : en:00:24:46.235
00:29:10.165 : en:00:29:10.165
00:36:35.402 : en:00:36:35.402
00:40:25.089 : en:00:40:25.089
00:45:23.596 : en:00:45:23.596
00:50:14.803 : en:00:50:14.803
00:56:12.286 : en:00:56:12.286
00:59:06.835 : en:00:59:06.835
01:04:44.464 : en:01:04:44.464
01:07:30.046 : en:01:07:30.046
01:15:37.450 : en:01:15:37.450
01:23:25.334 : en:01:23:25.334
01:26:39.653 : en:01:26:39.653
01:30:23.168 : en:01:30:23.168
01:35:08.411 : en:01:35:08.411

Скриншоты

[Профиль] [ЛС]
Показать сообщения:    

Текущее время: Сегодня 12:10

Часовой пояс: GMT



Вы не можете начинать темы
Вы не можете отвечать на сообщения
Вы не можете редактировать свои сообщения
Вы не можете удалять свои сообщения
Вы не можете голосовать в опросах
Вы не можете прикреплять файлы к сообщениям
Вы не можете скачивать файлы