Последний свидетель / The Last Witness (2018) WEBRip 720p | L2

 
Author Message

BOSS ®

Gender:

Longevity: 4 years 7 months

Posts: 14094

Location: ODESSA



: 22 ()

Top Keeper 4 (1) Mega Seeder 2 (1) Top Releaser 4 (1)
Торрент-статистика

Post 06-Jun-2018 14:09

[Quote]

Информация о фильме
Название: Последний свидетель
Оригинальное название: The Last Witness
Год выхода: 2018
Жанр: Триллер, история
Режиссер: Пётр Шкопяк
В ролях: Алекс Петтифер, Роберт Венцкевич, Талула Райли, Майкл Гэмбон, Уилл Торп, Генри Ллойд-Хьюз, Петр Страмовски, Гвилим Ли, Сэм Маркс, Крис Уокер и другие
О фильме:
Амбициозный молодой журналист, раскрывает подробности ужасающей бойни 22,000 Польских солдат, во время Второй Мировой Войны. Секрет, который скрывали слишком много лет.

Страна: Великобритания, Польша, Vicarious Productions Limited, Vicarious Productions, Dignity Film Finance
Продолжительность: 01:33:48
Перевод: Любительский (двухголосый закадровый) | HiWay Grope
Файл
Кодек: MPEG-4 AVC/x.264
Качество: WEBRip 720p
Видео: 1280x532, 25.000 fps, ~4410 kbps, 0.259 bit/pixel
Звук:
Аудио rus: AC3, 48 kHz, 6 ch, 384 Kbps
Субтитры: отсутствуют
Реклама: присутствует
Семпл

MediaInfo:

General
Unique ID : 234071760496102825715510776329724086230 (0xB01894CDF233EBA2A4E5FF5038CDC7D6)
Complete name : E:The.Last.Witness.2018.720p.WEBRip.HiWayGropeThe.Last.Witness.2018.720p.WEBRip.HiWayGrope.mkv
Format : Matroska
Format version : Version 2
File size : 3.21 GiB
Duration : 1h 33mn
Overall bit rate : 4 892 Kbps
Encoded date : UTC 2018-06-05 17:56:03
Writing application : mkvmerge v3.3.0 ('Language') built on Mar 24 2010 14:59:24
Writing library : libebml v0.8.0 + libmatroska v0.9.0
Video
ID : 1
Format : AVC
Format/Info : Advanced Video Codec
Format profile : Main@L3.1
Format settings, CABAC : Yes
Format settings, ReFrames : 3 frames
Codec ID : V_MPEG4/ISO/AVC
Duration : 1h 33mn
Bit rate : 4 410 Kbps
Width : 1 280 pixels
Height : 532 pixels
Display aspect ratio : 2.40:1
Frame rate mode : Constant
Frame rate : 25.000 fps
Standard : PAL
Color space : YUV
Chroma subsampling : 4:2:0
Bit depth : 8 bits
Scan type : Progressive
Bits/(Pixel*Frame) : 0.259
Stream size : 2.89 GiB (90%)
Language : English
Default : Yes
Forced : No
Color range : Limited
Color primaries : BT.601 NTSC
Transfer characteristics : BT.601
Matrix coefficients : BT.601
Audio
ID : 2
Format : AC-3
Format/Info : Audio Coding 3
Mode extension : CM (complete main)
Format settings, Endianness : Big
Codec ID : A_AC3
Duration : 1h 33mn
Bit rate mode : Constant
Bit rate : 384 Kbps
Channel(s) : 6 channels
Channel positions : Front: L C R, Side: L R, LFE
Sampling rate : 48.0 KHz
Frame rate : 31.250 fps (1536 spf)
Compression mode : Lossy
Stream size : 258 MiB (8%)
Default : Yes
Forced : No

Скриншоты

Релиз от: HiWay Grope
[Profile] [PM]
Display posts from previous:    

The time now is: Today 12:01

All times are GMT



You cannot post new topics in this forum
You cannot reply to topics in this forum
You cannot edit your posts in this forum
You cannot delete your posts in this forum
You cannot vote in polls in this forum
You cannot attach files in this forum
You cannot download files in this forum