Исчезновение Сидни Холла / The Vanishing of Sidney Hall (2017) BDRip 1080p | iTunes

 
Автор Сообщение

BOSS ®

Пол:

Стаж: 4 года 1 месяц

Сообщений: 12442

Откуда: ODESSA



Награды: 22 (Подробнее)

Mega Releaser 3 (Количество: 1) Mega Seeder 3 (Количество: 1) Mega Releaser 2 (Количество: 1)
Торрент-статистика

Создавать темы 06-Июн-2018 14:07

[Цитировать]

Информация о фильме
Название: Исчезновение Сидни Холла
Оригинальное название: The Vanishing of Sidney Hall
Год выхода: 2017
Жанр: драма, детектив
Режиссер: Шон Кристенсен
В ролях: Эль Фаннинг, Логан Лерман, Янина Гаванкар, Мишель Монахэн, Кайл Чандлер, Нэйтан Лейн, Маргарет Куэлли, Блейк Дженнер, Тим Блейк Нельсон, Яхья Абдул-Матин II
О фильме:
Будучи подростком, парень по имени Сидни Холл решает написать книгу, которая изменит его жизнь и перевернет представление о целом поколении. Ему это удается. Долгое время эта книга бьет все рекорды продаж. Героями бестселлера стали люди, которые окружали парня в течение всей его жизни. Сидни Холл становится лучшим писателем современности. Но однажды писатель решил сжечь все свои книги, а вскоре после этого он и сам исчезает. Долгие годы его никто не видел. За его поиски берется человек, который любой ценой хочет встретиться с неординарным писателем...

Страна: США
Продолжительность: 02:00:32
Перевод: Профессиональный (многоголосый закадровый) iTunes
Файл
Формат: MKV
Качество: BDRip 1080p [LoRD]
Видео: 1920x816 at 23.976 fps, MPEG-4 AVC, ~12.3 Mbps avg
Аудио#1: Russian: 48 kHz, AC3, 3/2 (L,C,R,l,r) + LFE ch, ~384.00 kbps avg
Аудио#2: English: 48 kHz, AC3, 3/2 (L,C,R,l,r) + LFE ch, ~640.00 kbps avg
Cубтитры: Russian, English

x264

x264 [info]: frame I:1263 Avg QP:13.34 size:214081
x264 [info]: frame P:37941 Avg QP:14.57 size:103017
x264 [info]: frame B:134197 Avg QP:15.97 size:51660

MediaInfo

General
Unique ID : 193844315344592437456474454505504085739 (0x91D50EA131E63BFB99E2B343E7E796EB)
Complete name : he.Vanishing.of.Sidney.Hall.2017.x264.BDRip.1080p.Rus.Eng.mkv
Format : Matroska
Format version : Version 4 / Version 2
File size : 11.2 GiB
Duration : 2 h 0 min
Overall bit rate : 13.3 Mb/s
Movie name : The.Vanishing.of.Sidney.Hall.2017.x264.BDRip.1080p.Rus.Eng.BLUEBIRD
Encoded date : UTC 2018-06-05 20:34:42
Writing application : mkvmerge v7.9.0 ('Birds') 64bit
Writing library : libebml v1.3.1 + libmatroska v1.4.2
Video
ID : 1
Format : AVC
Format/Info : Advanced Video Codec
Format profile : High@L4.1
Format settings : CABAC / 5 Ref Frames
Format settings, CABAC : Yes
Format settings, RefFrames : 5 frames
Codec ID : V_MPEG4/ISO/AVC
Duration : 2 h 0 min
Bit rate : 12.3 Mb/s
Width : 1 920 pixels
Height : 816 pixels
Display aspect ratio : 2.35:1
Frame rate mode : Constant
Frame rate : 23.976 (24000/1001) FPS
Color space : YUV
Chroma subsampling : 4:2:0
Bit depth : 8 bits
Scan type : Progressive
Bits/(Pixel*Frame) : 0.327
Stream size : 10.3 GiB (92%)
Title : The.Vanishing.of.Sidney.Hall.2017.x264.BDRip.1080p.Rus.Eng.BLUEBIRD
Writing library : x264 core 155 r2901 7d0ff22
Encoding settings : cabac=1 / ref=5 / deblock=1:-3:-3 / analyse=0x3:0x133 / me=umh / subme=10 / psy=1 / psy_rd=1.00:0.00 / mixed_ref=1 / me_range=32 / chroma_me=1 / trellis=2 / 8x8dct=1 / cqm=0 / deadzone=21,11 / fast_pskip=0 / chroma_qp_offset=-2 / threads=12 / lookahead_threads=2 / sliced_threads=0 / nr=0 / decimate=0 / interlaced=0 / bluray_compat=0 / constrained_intra=0 / bframes=8 / b_pyramid=2 / b_adapt=2 / b_bias=0 / direct=3 / weightb=1 / open_gop=0 / weightp=2 / keyint=250 / keyint_min=23 / scenecut=40 / intra_refresh=0 / rc_lookahead=60 / rc=2pass / mbtree=0 / bitrate=12300 / ratetol=1.0 / qcomp=0.60 / qpmin=0 / qpmax=69 / qpstep=4 / cplxblur=20.0 / qblur=0.5 / vbv_maxrate=50000 / vbv_bufsize=62500 / nal_hrd=none / filler=0 / ip_ratio=1.30 / pb_ratio=1.20 / aq=3:0.80
Language : English
Default : Yes
Forced : No
Audio #1
ID : 2
Format : AC-3
Format/Info : Audio Coding 3
Codec ID : A_AC3
Duration : 2 h 0 min
Bit rate mode : Constant
Bit rate : 384 kb/s
Channel(s) : 6 channels
Channel positions : Front: L C R, Side: L R, LFE
Sampling rate : 48.0 kHz
Frame rate : 31.250 FPS (1536 SPF)
Bit depth : 16 bits
Compression mode : Lossy
Stream size : 331 MiB (3%)
Title : Профессиональный многоголосый (iTunes)
Language : Russian
Service kind : Complete Main
Default : Yes
Forced : No
Audio #2
ID : 3
Format : AC-3
Format/Info : Audio Coding 3
Codec ID : A_AC3
Duration : 2 h 0 min
Bit rate mode : Constant
Bit rate : 640 kb/s
Channel(s) : 6 channels
Channel positions : Front: L C R, Side: L R, LFE
Sampling rate : 48.0 kHz
Frame rate : 31.250 FPS (1536 SPF)
Bit depth : 16 bits
Compression mode : Lossy
Stream size : 552 MiB (5%)
Language : English
Service kind : Complete Main
Default : No
Forced : No
Text #1
ID : 4
Format : UTF-8
Codec ID : S_TEXT/UTF8
Codec ID/Info : UTF-8 Plain Text
Duration : 1 h 31 min
Bit rate : 0 b/s
Count of elements : 4
Stream size : 173 Bytes (0%)
Title : forced
Language : Russian
Default : No
Forced : No
Text #2
ID : 5
Format : UTF-8
Codec ID : S_TEXT/UTF8
Codec ID/Info : UTF-8 Plain Text
Duration : 1 h 52 min
Bit rate : 103 b/s
Count of elements : 1797
Stream size : 85.4 KiB (0%)
Title : full
Language : Russian
Default : No
Forced : No
Text #3
ID : 6
Format : UTF-8
Codec ID : S_TEXT/UTF8
Codec ID/Info : UTF-8 Plain Text
Duration : 1 h 51 min
Bit rate : 65 b/s
Count of elements : 1570
Stream size : 53.8 KiB (0%)
Title : full
Language : English
Default : No
Forced : No
Text #4
ID : 7
Format : UTF-8
Codec ID : S_TEXT/UTF8
Codec ID/Info : UTF-8 Plain Text
Duration : 1 h 53 min
Bit rate : 67 b/s
Count of elements : 1887
Stream size : 56.4 KiB (0%)
Title : SDH
Language : English
Default : No
Forced : No
Menu
00:00:00.000 : en:00:00:00.000
00:07:46.675 : en:00:07:46.675
00:16:51.677 : en:00:16:51.677
00:23:38.917 : en:00:23:38.917
00:29:06.828 : en:00:29:06.828
00:38:17.587 : en:00:38:17.587
00:45:23.471 : en:00:45:23.471
00:52:20.637 : en:00:52:20.637
00:59:35.655 : en:00:59:35.655
01:07:13.571 : en:01:07:13.571
01:14:12.990 : en:01:14:12.990
01:22:08.298 : en:01:22:08.298
01:31:18.014 : en:01:31:18.014
01:36:54.225 : en:01:36:54.225
01:41:50.062 : en:01:41:50.062
01:52:30.285 : en:01:52:30.285

Скриншоты



Релиз от:
[Профиль] [ЛС]
Кто просматривает тему:

Форум Тема Автор Размер
Альтернативная история и наука BBC. Древние затерянные города. Исчезнувшая столица фараона / Lost Cities of the Ancients. The Vanished Capital of the Pharaoh (2006) HDTV [H.264/1080i-LQ] KottoSoft 2.43 GB
BBC BBC: Horizon. Исчезнувшие племена человечества / The Lost Tribes Of Humanity [сезон 52 эпизод 16] (Giles Harrison) [2016 г., Документальный, научно-популярный, история, исследования, HDTVRip-AVC 720p] skorpionN 1.57 GB
Viasat History Viasat History: Загадка исчезновения неандертальцев / Apocalypse Neanderthal [серии 1-2 из 2] (Jason Lavangie) [2015 г., Документально-постановочный, история, археология, SATRip] skorpionN 1.41 GB
Документальные HD В поисках исчезнувших великанов (сезон 1) / Search For The Lost Giants [2014, Познавательный, History Channel HD, HDTV 1080i] TorrentFilm 1.48 GB
Боевики, детективы, триллеры Гиллиан Флинн - Исчезнувшая (2016) MP3 Swager 1000 MB
Фильмы (HD Rips | 720p, 1080p) Если кошки исчезнут во всём мире / Sekai kara neko ga kietanara (2016) WEBRip 720p | L Swager 3.65 GB
Секреты / Тайны Загадочные исчезновения / Mysteries of the Missing [сезон 1 серии 8 из 8] (Abigail Williams) [2017 г., Документально-постановочный, история, археология, путешествия, исследования, HDTVRip-AVC 720p] skorpionN 10.79 GB
Фильмы 2016 года Исчезающее время / Vanishing Time: A Boy Who Returned (2016) HDRip | L1 BOSS 2.05 GB
Показать сообщения:    

Текущее время: Сегодня 12:08

Часовой пояс: GMT



Вы не можете начинать темы
Вы не можете отвечать на сообщения
Вы не можете редактировать свои сообщения
Вы не можете удалять свои сообщения
Вы не можете голосовать в опросах
Вы не можете прикреплять файлы к сообщениям
Вы не можете скачивать файлы