Меган Ливи / Megan Leavey (2017) BDRip 720p | iTunes

 
Автор Сообщение

BOSS ®

Пол:

Стаж: 3 года 11 месяцев

Сообщений: 11851

Откуда: ODESSA



Награды: 22 (Подробнее)

Top Keeper 1 (Количество: 1) Top Seeder 3 (Количество: 1) Mega Seeder 2 (Количество: 1)
Торрент-статистика

Создавать темы 06-Июн-2018 14:01

[Цитировать]

Информация о фильме
Название: Меган Ливи
Оригинальное название: Megan Leavey
Год выхода: 2017
Жанр: Драма, военный, биография, реальные события
Режиссер: Габриэла Каупертвэйте
В ролях: Кейт Мара, Джеральдин Джеймс, Брэдли Уитфорд, Том Фелтон, Иди Фалко, Коммон, Уилл Пэттон, Шеннон Тарбет, Рамон Родригес, Кори Джонсон
О фильме: Американская военнослужащая Меган Ливи со служебной собакой проходит службу в Ираке, где находят взрывные устройства.

Страна: США
Студии: LD Entertainment, Calle Cruzada
Продолжительность: 01:56:36
Перевод: Профессиональный (многоголосый, закадровый) | iTunes
Файл
Формат: MKV
Качество: BDRip 720p | WiKi
Видео: MPEG-4 AVC, 5200 kb/s, 1280x536
Аудио: Russian: AC3, 384 kb/s (6 ch) / English: AC3, 640 kb/s (6 ch)
Субтитры: английские (full)

MI

Общее
Уникальный идентификатор : 227395718152108755593456918824043520507 (0xAB12D28109A4F46F970D64FD62D1A1FB)
Полное имя : F:ЗагрузкиMegan.Leavey.2017.D.BDRip.720p.mkv
Формат : Matroska
Версия формата : Version 2
Размер файла : 5,07 Гбайт
Продолжительность : 1 ч. 56 м.
Общий поток : 6223 Кбит/сек
Дата кодирования : UTC 2018-06-05 21:27:09
Программа кодирования : mkvmerge v7.8.0 ('River Man') 32bit built on Apr 3 2015 12:11:22
Библиотека кодирования : libebml v1.3.1 + libmatroska v1.4.2
Видео
Идентификатор : 1
Формат : AVC
Формат/Информация : Advanced Video Codec
Профиль формата : High@L4.1
Настройки формата : CABAC / 12 Ref Frames
Параметр CABAC формата : Да
Параметр RefFrames формата : 12 кадров
Идентификатор кодека : V_MPEG4/ISO/AVC
Продолжительность : 1 ч. 56 м.
Битрейт : 5200 Кбит/сек
Ширина : 1280 пикселей
Высота : 536 пикселей
Соотношение сторон : 2,40:1
Режим частоты кадров : Постоянный
Частота кадров : 23,976 (24000/1001) кадра/сек
Цветовое пространство : YUV
Субдискретизация насыщенности : 4:2:0
Битовая глубина : 8 бит
Тип развёртки : Прогрессивная
Бит/(Пиксели*Кадры) : 0.316
Размер потока : 4,13 Гбайт (82%)
Заголовок : WiKi
Библиотека кодирования : x264 core 124 r2197+666+28 3970b70 tMod+MixAQ [8-bit@4:2:0 X86_64]
Настройки программы : cabac=1 / ref=12 / deblock=1:-3:-3 / analyse=0x3:0x133 / me=umh / subme=11 / psy=1 / fade_compensate=0.00 / psy_rd=1.05:0.10 / mixed_ref=1 / me_range=64 / chroma_me=1 / trellis=2 / 8x8dct=1 / cqm=0 / deadzone=21,11 / fast_pskip=0 / chroma_qp_offset=-3 / threads=6 / sliced_threads=0 / nr=0 / decimate=1 / interlaced=0 / bluray_compat=0 / constrained_intra=0 / fgo=0 / bframes=12 / b_pyramid=2 / b_adapt=2 / b_bias=0 / direct=3 / weightb=1 / open_gop=0 / weightp=2 / keyint=250 / keyint_min=23 / scenecut=40 / intra_refresh=0 / rc=2pass / mbtree=0 / bitrate=5200 / ratetol=1.0 / qcomp=0.75 / qpmin=0 / qpmax=69 / qpstep=4 / cplxblur=20.0 / qblur=0.5 / ip_ratio=1.40 / pb_ratio=1.30 / aq=1 / aq-strength=0.70 / aq-sensitivity=10.00 / aq-ifactor=1.00 / aq-pfactor=1.00 / aq-bfactor=1.00 / aq2=0
Язык : English
Default : Да
Forced : Нет
Аудио #1
Идентификатор : 2
Формат : AC-3
Формат/Информация : Audio Coding 3
Идентификатор кодека : A_AC3
Продолжительность : 1 ч. 56 м.
Вид битрейта : Постоянный
Битрейт : 384 Кбит/сек
Каналы : 6 каналов
Расположение каналов : Front: L C R, Side: L R, LFE
Частота : 48,0 КГц
Частота кадров : 31,250 кадров/сек (1536 SPF)
Битовая глубина : 16 бит
Метод сжатия : С потерями
Размер потока : 320 Мбайт (6%)
Заголовок : iTunes
Язык : Russian
Default : Да
Forced : Нет
Аудио #2
Идентификатор : 3
Формат : AC-3
Формат/Информация : Audio Coding 3
Идентификатор кодека : A_AC3
Продолжительность : 1 ч. 56 м.
Вид битрейта : Постоянный
Битрейт : 640 Кбит/сек
Каналы : 6 каналов
Расположение каналов : Front: L C R, Side: L R, LFE
Частота : 48,0 КГц
Частота кадров : 31,250 кадров/сек (1536 SPF)
Битовая глубина : 16 бит
Метод сжатия : С потерями
Размер потока : 534 Мбайт (10%)
Заголовок : Original
Язык : English
Default : Нет
Forced : Нет
Текст
Идентификатор : 4
Формат : UTF-8
Идентификатор кодека : S_TEXT/UTF8
Идентификатор кодека/Информация : UTF-8 Plain Text
Заголовок : Full
Язык : English
Default : Нет
Forced : Нет
Меню
00:00:00.000 : en:00:00:00.000
00:04:27.767 : en:00:04:27.767
00:08:12.283 : en:00:08:12.283
00:15:31.264 : en:00:15:31.264
00:20:05.788 : en:00:20:05.788
00:27:39.867 : en:00:27:39.867
00:34:44.124 : en:00:34:44.124
00:38:48.826 : en:00:38:48.826
00:45:11.792 : en:00:45:11.792
00:52:07.875 : en:00:52:07.875
00:58:51.194 : en:00:58:51.194
01:06:28.151 : en:01:06:28.151
01:11:44.759 : en:01:11:44.759
01:17:19.718 : en:01:17:19.718
01:23:28.587 : en:01:23:28.587
01:28:38.522 : en:01:28:38.522
01:34:44.053 : en:01:34:44.053
01:39:33.134 : en:01:39:33.134
01:44:29.513 : en:01:44:29.513
01:48:39.972 : en:01:48:39.972

Скриншоты

[Профиль] [ЛС]
Показать сообщения:    

Текущее время: Сегодня 17:37

Часовой пояс: GMT



Вы не можете начинать темы
Вы не можете отвечать на сообщения
Вы не можете редактировать свои сообщения
Вы не можете удалять свои сообщения
Вы не можете голосовать в опросах
Вы не можете прикреплять файлы к сообщениям
Вы не можете скачивать файлы