Привидение / Every Day (2018) WEBRip 720p | L2

 
Автор Сообщение

BOSS ®

Пол:

Стаж: 4 года

Сообщений: 12134

Откуда: ODESSA



Награды: 22 (Подробнее)

Mega Releaser 1 (Количество: 1) Mega Releaser 3 (Количество: 1) Top Releaser 3 (Количество: 1)
Торрент-статистика

Создавать темы 05-Июн-2018 16:34

[Цитировать]

Информация о фильме
Название: Привидение
Оригинальное название: Every Day
Год выхода: 2018
Жанр: Фэнтези, драма, мелодрама
Режиссер: Майкл Сакси
В ролях: Энгаури Райс, Джастис Смит, Дженни Росс, Лукас Джейд Зуманн, Кэти Дуглас, Джейкоб Баталон, Иэн Александр, Шон Джонс, Колин Форд и другие
О фильме:
Каждый день он просыпается в новом теле. Его утро - это новый дом, новая семья, новые друзья. Он - бестелесный дух, который видит мир глазами других и проживает короткие моменты чужих жизней. Но однажды он встречает Рианнон, и каждый день превращается в попытку вернуться к этой девушке, ставшей для него той самой единственной. Теперь им нужно найти способ остаться вместе.

Страна: США, FilmWave
Продолжительность: 01:37:52
Перевод: Любительский (двухголосый закадровый) | HiWay Grope
Файл
Кодек: MPEG-4 AVC/x.264
Качество: WEBRip 720p
Видео: 1280x532, 23.976 fps, ~2871 kbps, 0.176 bit/pixel
Звук:
Аудио rus: AC3, 48 kHz, 6 ch, 384 Kbps
Субтитры: отсутствуют
Реклама: присутствует
Семпл

MediaInfo:

General
Unique ID : 281525768149342317203769991144404293612 (0xD3CBE404E2A2A0566290111248D617EC)
Complete name : E:Every.Day.2018.720p.WEBRip.HiWayGropeEvery.Day.2018.720p.WEBRip.HiWayGrope.mkv
Format : Matroska
Format version : Version 4 / Version 2
File size : 2.27 GiB
Duration : 1h 37mn
Overall bit rate : 3 321 Kbps
Encoded date : UTC 2018-06-05 06:45:52
Writing application : mkvmerge v21.0.0 ('Tardigrades Will Inherit The Earth') 64-bit
Writing library : libebml v1.3.5 + libmatroska v1.4.8
Video
ID : 1
Format : AVC
Format/Info : Advanced Video Codec
Format profile : Main@L4.1
Format settings, CABAC : Yes
Format settings, ReFrames : 4 frames
Codec ID : V_MPEG4/ISO/AVC
Duration : 1h 37mn
Bit rate : 2 871 Kbps
Width : 1 280 pixels
Height : 532 pixels
Display aspect ratio : 2.40:1
Frame rate mode : Constant
Frame rate : 23.976 (24000/1001) fps
Standard : NTSC
Color space : YUV
Chroma subsampling : 4:2:0
Bit depth : 8 bits
Scan type : Progressive
Bits/(Pixel*Frame) : 0.176
Stream size : 1.96 GiB (86%)
Language : English
Default : Yes
Forced : No
Color range : Limited
Color primaries : BT.601 NTSC
Transfer characteristics : BT.601
Matrix coefficients : BT.601
Audio
ID : 2
Format : AC-3
Format/Info : Audio Coding 3
Mode extension : CM (complete main)
Format settings, Endianness : Big
Codec ID : A_AC3
Duration : 1h 37mn
Bit rate mode : Constant
Bit rate : 384 Kbps
Channel(s) : 6 channels
Channel positions : Front: L C R, Side: L R, LFE
Sampling rate : 48.0 KHz
Frame rate : 31.250 fps (1536 spf)
Compression mode : Lossy
Stream size : 269 MiB (12%)
Language : Russian
Default : Yes
Forced : No

Скриншоты

Релиз от: HiWay Grope
[Профиль] [ЛС]
Кто просматривает тему:

Форум Тема Автор Размер
Movies OST - Охотники за привидениями / Ghostbusters (2016) MP3 Guest 121 MB
Азиатские фильмы Встречи с привидениями / Gui da gui (1980) HDRip от MegaPeer | A Russian Mafia 1.46 GB
Фильмы 2015 года Гарри Прайс - охотник за привидениями / Harry Price: ghost hunter (Алекс Пиллай / Alex Pillai) [2015, Великобритания, детектив, триллер, HDTVRip] + Sub Rus + Original Eng TorrentFilm 977 MB
Сатира и юмор Джером Клапка Джером - Пирушка с привидениями и другие рассказы (2016) MP3 Swager 333 MB
Фильмы до 2000 года Дом с привидениями / La casa 3 (Умберто Ленци) [1988 г., ужасы, триллер, детектив, DVDRip] [MVO, AVO] Bathory 1.46 GB
Отечественные мультфильмы Кентервильское привидение (Валентина Брумберг, Зинаида Брумберг) [1970 г., Мультфильм, DVDRip] painkiller 334 MB
Отечественные мультфильмы Кентервильское привидение (Зинаида Брумберг, Валентина Брумберг) [1970, Рисованный мультфильм, SATRip] TorrentFilm 306 MB
Фильмы 2014 года Киндер-Вилейское привидение (Елена Турова) [2014, фэнтези, комедия, семейный, SATRip] sergej644 1.37 GB
Показать сообщения:    

Текущее время: Сегодня 04:01

Часовой пояс: GMT



Вы не можете начинать темы
Вы не можете отвечать на сообщения
Вы не можете редактировать свои сообщения
Вы не можете удалять свои сообщения
Вы не можете голосовать в опросах
Вы не можете прикреплять файлы к сообщениям
Вы не можете скачивать файлы