Незнакомцы: Жестокие игры / The Strangers: Prey at Night (2018) BDRip 1080p | iTunes

 
Author Message

BOSS ®

Gender:

Longevity: 4 years 7 months

Posts: 14094

Location: ODESSA



: 22 ()

Top Releaser 2 (1) Mega Seeder 2 (1) Mega Releaser 2 (1)
Торрент-статистика

Post 02-Jun-2018 19:36

[Quote]

Информация о фильме
Название: Незнакомцы: Жестокие игры
Оригинальное название: The Strangers: Prey at Night
Год выпуска: 2018
Страна: США
Жанр: ужасы-Перевод: Дублированный [iTunes]
Субтитры: английские (SDH)
Продолжительность: 01:25:37-Режиссер: Йоханнес Робертс
В ролях: Кристина Хендрикс (Cindy), Бэйли Мэдисон (Kinsey), Мартин Хендерсон (Mike), Эмма Белломи (Dollface), Льюис Пуллман (Luke), Дэмиэн Маффей (Man in the Mask), Лиа Энзлин (Pin-Up Girl), Леа Робертс (Young Mother), Престон Садлеир (Officer Brooks), Gabriel A. Byrne (Young Son), Sunny Dixit (Charles)-Описание:
Американская семья отправляется в небольшое путешествие - навестить родственников, которые живут в кемпинге. Но автомобильный лагерь оказывается пуст. Под покровом ночи появляются трое психопатов в масках, цель которых не грабить или убивать, а выяснить, какой у каждого из членов семьи личный предел жажды жизни...​-Рейтинг:

MPAA: R - Лицам до 17 лет обязательно присутствие взрослого-Качество: BDRip 1080p
Формат: MKV
Видео: AVC, 1920x808 (2.40:1), 9454 kbps, 23,976 fps, 0,254 bpp
Аудио №1: русский / AC3 / 5.1 / 48 kHz / 384 kbps / |DUB|
Аудио №2: английский / DTS / 5.1 / 48 kHz / 1509 kbps / 24 bit
Навигация по главам: есть
Сэмпл-

ОтчетМедиаИнфо

General
Unique ID : 141460712266471782378440250360594893217 (0x6A6C579881FFB98DBB66DAD850E709A1)
Complete name : F:The.Strangers.Prey.at.Night.2018.1080p.BluRay.mkv
Format : Matroska
Format version : Version 4 / Version 2
File size : 6.79 GiB
Duration : 1 h 25 min
Overall bit rate : 11.3 Mb/s
Encoded date : UTC 2018-06-02 13:26:03
Writing application : mkvmerge v23.0.0 ('The Bride Said No') 64-bit
Writing library : libebml v1.3.6 + libmatroska v1.4.9
Video
ID : 1
Format : AVC
Format/Info : Advanced Video Codec
Format profile : High@L4.1
Format settings, CABAC : Yes
Format settings, ReFrames : 5 frames
Codec ID : V_MPEG4/ISO/AVC
Duration : 1 h 25 min
Bit rate : 9 454 kb/s
Width : 1 920 pixels
Height : 808 pixels
Display aspect ratio : 2.40:1
Frame rate mode : Constant
Frame rate : 23.976 FPS
Color space : YUV
Chroma subsampling : 4:2:0
Bit depth : 8 bits
Scan type : Progressive
Bits/(Pixel*Frame) : 0.254
Stream size : 5.65 GiB (83%)
Writing library : x264 core 155 r2901 7d0ff22
Encoding settings : cabac=1 / ref=5 / deblock=1:0:0 / analyse=0x3:0x133 / me=umh / subme=7 / psy=1 / psy_rd=1.00:0.00 / mixed_ref=1 / me_range=16 / chroma_me=1 / trellis=1 / 8x8dct=1 / cqm=0 / deadzone=21,11 / fast_pskip=0 / chroma_qp_offset=-2 / threads=25 / lookahead_threads=4 / sliced_threads=0 / nr=0 / decimate=1 / interlaced=0 / bluray_compat=0 / constrained_intra=0 / bframes=3 / b_pyramid=2 / b_adapt=1 / b_bias=0 / direct=1 / weightb=1 / open_gop=0 / weightp=2 / keyint=250 / keyint_min=23 / scenecut=40 / intra_refresh=0 / rc_lookahead=40 / rc=2pass / mbtree=1 / bitrate=9454 / ratetol=1.0 / qcomp=0.60 / qpmin=0 / qpmax=69 / qpstep=4 / cplxblur=20.0 / qblur=0.5 / ip_ratio=1.40 / aq=1:1.00
Language : English
Default : Yes
Forced : No
Audio #1
ID : 2
Format : AC-3
Format/Info : Audio Coding 3
Mode extension : CM (complete main)
Format settings, Endianness : Big
Codec ID : A_AC3
Duration : 1 h 25 min
Bit rate mode : Constant
Bit rate : 384 kb/s
Channel(s) : 6 channels
Channel positions : Front: L C R, Side: L R, LFE
Sampling rate : 48.0 kHz
Frame rate : 31.250 FPS (1536 spf)
Compression mode : Lossy
Stream size : 235 MiB (3%)
Title : DUB | iTunes
Language : Russian
Default : Yes
Forced : No
Audio #2
ID : 3
Format : DTS
Format/Info : Digital Theater Systems
Mode : 16
Format settings, Endianness : Big
Codec ID : A_DTS
Duration : 1 h 25 min
Bit rate mode : Constant
Bit rate : 1 509 kb/s
Channel(s) : 6 channels
Channel positions : Front: L C R, Side: L R, LFE
Sampling rate : 48.0 kHz
Frame rate : 93.750 FPS (512 spf)
Bit depth : 24 bits
Compression mode : Lossy
Stream size : 924 MiB (13%)
Title : Original
Language : English
Default : No
Forced : No
Text
ID : 4
Format : UTF-8
Codec ID : S_TEXT/UTF8
Codec ID/Info : UTF-8 Plain Text
Duration : 1 h 16 min
Bit rate : 32 b/s
Count of elements : 831
Stream size : 18.1 KiB (0%)
Title : SDH
Language : English
Default : No
Forced : No
Menu
00:00:00.000 : en:00:00:00.000
00:04:59.883 : en:00:04:59.883
00:08:49.154 : en:00:08:49.154
00:12:58.111 : en:00:12:58.111
00:17:23.918 : en:00:17:23.918
00:21:53.771 : en:00:21:53.771
00:24:53.909 : en:00:24:53.909
00:30:15.105 : en:00:30:15.105
00:34:45.208 : en:00:34:45.208
00:40:01.899 : en:00:40:01.899
00:44:48.728 : en:00:44:48.728
00:49:48.444 : en:00:49:48.444
00:53:12.606 : en:00:53:12.606
00:56:55.996 : en:00:56:55.996
00:58:20.705 : en:00:58:20.705
01:00:37.884 : en:01:00:37.884
01:05:21.709 : en:01:05:21.709
01:09:17.528 : en:01:09:17.528
01:14:59.036 : en:01:14:59.036
01:18:07.349 : en:01:18:07.349

Скриншоты


[Profile] [PM]
Display posts from previous:    

The time now is: Today 10:54

All times are GMT



You cannot post new topics in this forum
You cannot reply to topics in this forum
You cannot edit your posts in this forum
You cannot delete your posts in this forum
You cannot vote in polls in this forum
You cannot attach files in this forum
You cannot download files in this forum