Кунхам: Пограничный остров / Gun-ham-do (2017) BDRip 720p | L2

 
Автор Сообщение

BOSS ®

Пол:

Стаж: 4 года 1 месяц

Сообщений: 12442

Откуда: ODESSA



Награды: 22 (Подробнее)

Top Releaser 5 (Количество: 1) Mega Seeder 2 (Количество: 1) Top Keeper 3 (Количество: 1)
Торрент-статистика

Создавать темы 01-Июн-2018 19:48

[Цитировать]

Информация о фильме
Название: Кунхам: Пограничный остров
Оригинальное название: Gun-ham-do
Год выхода: 2017
Жанр: Драма, военный, боевик, история
Режиссер: Рю Сын-ван
В ролях: Чжон Мин Хван, Чжи Соп Со, Чжун Ки Сон, Чжун Хён Ли, Су Ан Ким, Ин У Ким, Кён Ён Ли, Чжун Хи Ким, Мин Чжэ Ким (I), Сын Хван Син, Сын Чхоль Пэк, Чжу Бон Ки, Хён Так Син, Ман Сик Чон, Сок Ён Чон, Чжи Сон Ом
О фильме:
Японцы называли этот остров Хасима. Шесть гектаров земли и бетона в 15 километрах от побережья Нагасаки. Здесь с конца XIX века профессиональные шахтеры добывали уголь из подводных забоев. Когда наступила война, и все ушли на фронт, на смену шахтерам привезли военнопленных китайцев и корейских переселенцев. Корейцы называли этот остров Кунхам. Или Остров-Броненосец. Для них он был тюрьмой, из которой невозможно сбежать. Руководитель оркестра Ли Ган-ок поддался на уговоры японского рекрутёра, который обещал бесплатную дорогу и работу в Японии. Так он с малолетней дочерью оказался на Кунхаме в компании соотечественников, среди которых можно было встретить и бандитов, и героев-подпольщиков. И каждый из них был готов принять участие в побеге.

Страна: Южная Корея
Студия: CJ Entertainment
Продолжительность: 02:12:12
Перевод: Любительский двухголосый

Файл
Кодек: x.264
Качество: BDRip 720p
Видео: MPEG-4 AVC, 1280x536 , 6760 Kбит/с, 24.000 кадр/с
Звук:
Аудио #1: Русский ( АС3, 6ch, 448 Кбит/с, 48.0 KHz) Любительский (двухголосый, закадровый) Храм Дорам_ТВ
Аудио #2: Корейский ( АС3, 6ch, 448 Кбит/с, 48.0 KHz)
Субтитры: китайские
Трейлер

MediaInfo

Источник: The.Battleship.Island.2017.720p.BluRay.x264.DTS-WiKi
General
Unique ID : 231172647695245159660721016854218435354 (0xADEA3B81F8AA270AB23CC807C0F26B1A)
Complete name : The.Battleship.Island.2017.BDRip.720p.mkv
Format : Matroska
Format version : Version 4 / Version 2
File size : 7.07 GiB
Duration : 2 h 12 min
Overall bit rate : 7 658 kb/s
Encoded date : UTC 2018-06-01 18:16:06
Writing application : mkvmerge v7.1.0 ('Good Love') 64bit built on Jul 27 2014 13:06:55
Writing library : libebml v1.3.0 + libmatroska v1.4.1
Video
ID : 1
Format : AVC
Format/Info : Advanced Video Codec
Format profile : High@L4.1
Format settings : CABAC / 12 Ref Frames
Format settings, CABAC : Yes
Format settings, ReFrames : 12 frames
Codec ID : V_MPEG4/ISO/AVC
Duration : 2 h 12 min
Bit rate : 6 760 kb/s
Width : 1 280 pixels
Height : 536 pixels
Display aspect ratio : 2.40:1
Frame rate mode : Constant
Frame rate : 24.000 FPS
Color space : YUV
Chroma subsampling : 4:2:0
Bit depth : 8 bits
Scan type : Progressive
Bits/(Pixel*Frame) : 0.411
Stream size : 6.24 GiB (88%)
Writing library : x264 core 124 r2197+666+28 3970b70 tMod+MixAQ [8-bit@4:2:0 X86_64]
Encoding settings : cabac=1 / ref=12 / deblock=1:-3:-3 / analyse=0x3:0x133 / me=tesa / subme=11 / psy=1 / fade_compensate=0.00 / psy_rd=1.05:0.10 / mixed_ref=1 / me_range=32 / chroma_me=1 / trellis=2 / 8x8dct=1 / cqm=0 / deadzone=21,11 / fast_pskip=0 / chroma_qp_offset=-3 / threads=18 / sliced_threads=0 / nr=0 / decimate=0 / interlaced=0 / bluray_compat=0 / constrained_intra=0 / fgo=0 / bframes=12 / b_pyramid=2 / b_adapt=2 / b_bias=0 / direct=3 / weightb=1 / open_gop=0 / weightp=2 / keyint=600 / keyint_min=1 / scenecut=40 / intra_refresh=0 / rc_lookahead=80 / rc=crf / mbtree=0 / crf=16.5000 / qcomp=0.75 / qpmin=0 / qpmax=69 / qpstep=4 / vbv_maxrate=62500 / vbv_bufsize=50000 / crf_max=0.0 / nal_hrd=none / ip_ratio=1.25 / pb_ratio=1.15 / aq=3 / aq-strength=0.80 / aq-sensitivity=10.00 / aq-ifactor=1.00 / aq-pfactor=1.00 / aq-bfactor=1.00 / aq2=0 / zones=0,2777,crf=12.5/2778,5070,crf=14.5/5118,5581,crf=14.5/6031,6092,crf=14.5/6208,8043,crf=13.5/8299,8864,crf=13.5/9083,10551,crf=13.5/12504,12590,crf=14.5/17933,23143,crf=13.5/34397,34467,crf=14.5/35872,35915,crf=14.5/38243,38480,crf=15.5/41507,41538,crf=14.5/42001,42113,crf=14.5/47603,47652,crf=14.5/47708,47734,crf=14.5/49653,49816,crf=15.5/80388,80872,crf=14.5/92076,92317,crf=14.5/98060,99170,crf=14.5/100701,101521,crf=14.5/101675,102071,crf=13.5/102566,103449,crf=14.5/103692,105591,crf=14.5/105931,107810,crf=14.5/115776,116784,crf=14.5/117768,118484,crf=14.5/143325,143724,crf=14.5/144301,144748,crf=14.5/145029,145156,crf=14.5/145547,146277,crf=13.5/146489,146663,crf=13.5/146861,149470,crf=13.5/149535,149623,crf=13.5/152082,152960,crf=13.5/154264,154742,crf=14.5/155131,155245,crf=13.5/155742,156214,crf=13.5/156364,156465,crf=13.5/158791,159866,crf=13.5/184917,189709,crf=25
Language : Korean
Default : Yes
Forced : No
Audio #1
ID : 2
Format : AC-3
Format/Info : Audio Coding 3
Codec ID : A_AC3
Duration : 2 h 12 min
Bit rate mode : Constant
Bit rate : 448 kb/s
Channel(s) : 6 channels
Channel positions : Front: L C R, Side: L R, LFE
Sampling rate : 48.0 kHz
Frame rate : 31.250 FPS (1536 SPF)
Bit depth : 16 bits
Compression mode : Lossy
Stream size : 424 MiB (6%)
Language : Russian
Service kind : Complete Main
Default : Yes
Forced : No
Audio #2
ID : 3
Format : AC-3
Format/Info : Audio Coding 3
Codec ID : A_AC3
Duration : 2 h 12 min
Bit rate mode : Constant
Bit rate : 448 kb/s
Channel(s) : 6 channels
Channel positions : Front: L C R, Side: L R, LFE
Sampling rate : 48.0 kHz
Frame rate : 31.250 FPS (1536 SPF)
Bit depth : 16 bits
Compression mode : Lossy
Stream size : 424 MiB (6%)
Language : Korean
Service kind : Complete Main
Default : No
Forced : No
Text #1
ID : 4
Format : UTF-8
Codec ID : S_TEXT/UTF8
Codec ID/Info : UTF-8 Plain Text
Duration : 2 h 10 min
Bit rate : 44 b/s
Count of elements : 1681
Stream size : 42.4 KiB (0%)
Title : CHS
Language : Chinese
Default : No
Forced : No
Text #2
ID : 5
Format : UTF-8
Codec ID : S_TEXT/UTF8
Codec ID/Info : UTF-8 Plain Text
Duration : 2 h 10 min
Bit rate : 44 b/s
Count of elements : 1681
Stream size : 42.4 KiB (0%)
Title : CHT
Language : Chinese
Default : No
Forced : No
Menu
00:00:00.000 : en:00:00:00.000
00:17:40.083 : en:00:17:40.083
00:36:02.458 : en:00:36:02.458
00:52:31.542 : en:00:52:31.542
01:09:55.875 : en:01:09:55.875
01:25:31.208 : en:01:25:31.208
01:41:04.458 : en:01:41:04.458
01:56:43.292 : en:01:56:43.292
[Профиль] [ЛС]
Показать сообщения:    

Текущее время: Сегодня 11:10

Часовой пояс: GMT



Вы не можете начинать темы
Вы не можете отвечать на сообщения
Вы не можете редактировать свои сообщения
Вы не можете удалять свои сообщения
Вы не можете голосовать в опросах
Вы не можете прикреплять файлы к сообщениям
Вы не можете скачивать файлы