Чистокровные / Thoroughbreds (2017) BDRip 720p | HDrezka Studio

 
Автор Сообщение

BOSS ®

Пол:

Стаж: 3 года 8 месяцев

Сообщений: 10631

Откуда: ODESSA



Награды: 22 (Подробнее)

Top Releaser 5 (Количество: 1) Top Seeder 5 (Количество: 1) Mega Seeder 3 (Количество: 1)
Торрент-статистика

Создавать темы 01-Июн-2018 19:47

[Цитировать]

Информация о фильме
Название: Чистокровные
Оригинальное название: Thoroughbreds
Год выхода: 2017
Жанр: Триллер, драма
Режиссер: Кори Финли
В ролях: Аня Тейлор-Джой, Оливия Кук, Антон Ельчин, Пол Спаркс, Кайли Вернофф, Фрэнси Свифт, Леа Просито, Макс Рипли, Шанти Спиллейн, Ксавье Диллингем
О фильме:
Дороги двух подруг из пригорода Коннектикута разошлись, и девушки не виделись несколько лет. Когда они снова встречаются, то решают восстановить свою былую дружбу. При более тесном общении девушки замечают, что они обе очень изменились, и даже стали способными на убийство.

Страна: США
Продолжительность: 01:32:04
Перевод: Профессиональный (многоголосый, закадровый) | HDrezka Studio
Файл
Кодек: x264
Качество: BDRip 720p
Видео: 1280х536 (2.40:1), 23,976 fps, AVC (H.264), High@L4.1, ~5088 Kbps avg, 0.309 bit/pixel
Звук: AC3, 2 ch, 192 kbps

MI

General
Unique ID : 199612864373779451915163893056681577420 (0x962C0A0E23775271B07E1B5B51F48BCC)
Complete name : J:СборкаЧистокровные. - Thoroughbreds.2017.BDRip.720p.AC3.x264.HDrezka Studio.mkv
Format : Matroska
Format version : Version 4 / Version 2
File size : 3.40 GiB
Duration : 1 h 32 min
Overall bit rate : 5 282 kb/s
Encoded date : UTC 2018-06-01 16:54:26
Writing application : mkvmerge v7.3.0 ('Nouages') 64bit built on Oct 22 2014 18:53:34
Writing library : libebml v1.3.0 + libmatroska v1.4.1
Video #1
ID : 1
Format : AVC
Format/Info : Advanced Video Codec
Format profile : High@L4.1
Format settings : CABAC / 12 Ref Frames
Format settings, CABAC : Yes
Format settings, RefFrames : 12 frames
Codec ID : V_MPEG4/ISO/AVC
Duration : 1 h 32 min
Bit rate : 5 088 kb/s
Width : 1 280 pixels
Height : 536 pixels
Display aspect ratio : 2.40:1
Frame rate mode : Constant
Frame rate : 23.976 (24000/1001) FPS
Color space : YUV
Chroma subsampling : 4:2:0
Bit depth : 8 bits
Scan type : Progressive
Bits/(Pixel*Frame) : 0.309
Stream size : 3.27 GiB (96%)
Writing library : x264 core 155 r2901 7d0ff22
Encoding settings : cabac=1 / ref=12 / deblock=1:-3:-3 / analyse=0x3:0x113 / me=umh / subme=10 / psy=1 / psy_rd=1.05:0.10 / mixed_ref=1 / me_range=32 / chroma_me=1 / trellis=2 / 8x8dct=1 / cqm=0 / deadzone=21,11 / fast_pskip=0 / chroma_qp_offset=-2 / threads=12 / lookahead_threads=1 / sliced_threads=0 / nr=0 / decimate=1 / interlaced=0 / bluray_compat=0 / constrained_intra=0 / bframes=6 / b_pyramid=2 / b_adapt=2 / b_bias=0 / direct=3 / weightb=1 / open_gop=0 / weightp=2 / keyint=250 / keyint_min=23 / scenecut=40 / intra_refresh=0 / rc=2pass / mbtree=0 / bitrate=5088 / ratetol=1.0 / qcomp=0.70 / qpmin=0 / qpmax=69 / qpstep=4 / cplxblur=20.0 / qblur=0.5 / ip_ratio=1.40 / pb_ratio=1.30 / aq=3:1.00
Default : Yes
Forced : No
Audio #2
ID : 2
Format : AC-3
Format/Info : Audio Coding 3
Format settings, Endianness : Big
Codec ID : A_AC3
Duration : 1 h 32 min
Bit rate mode : Constant
Bit rate : 192 kb/s
Channel(s) : 2 channels
Channel positions : Front: L R
Sampling rate : 48.0 kHz
Frame rate : 31.250 FPS (1536 SPF)
Bit depth : 16 bits
Compression mode : Lossy
Stream size : 126 MiB (4%)
Service kind : Complete Main
Default : Yes
Forced : No

Скриншоты

[Профиль] [ЛС]
Показать сообщения:    

Текущее время: Сегодня 12:00

Часовой пояс: GMT



Вы не можете начинать темы
Вы не можете отвечать на сообщения
Вы не можете редактировать свои сообщения
Вы не можете удалять свои сообщения
Вы не можете голосовать в опросах
Вы не можете прикреплять файлы к сообщениям
Вы не можете скачивать файлы