11.22.63 / 11.22.63 [S01] (2016) HDTVRip | LostFilm

 
Автор Сообщение

достали все ®

Пол:

Стаж: 1 год 8 месяцев

Сообщений: 6565



Награды: 12 (Подробнее)

Mega Seeder 4 (Количество: 1) Top Releaser 3 (Количество: 1) Mega Seeder 3 (Количество: 1)
Торрент-статистика

Создавать темы 26-Июн-2016 10:41

[Цитировать]

Название: 11.22.63
Оригинальное название: 11.22.63
Год выпуска: 2016
Жанр: Фантастика, триллер, детектив
Выпущено: США, Bad Robot, Warner Bros. Television
Режиссер: Джеймс Стронг, Фред Туа, Джеймс Кент
В ролях: Джеймс Франко, Крис Купер, Джош Дюамель, Люси Фрай, Сара Гадон, Черри Джонс, Т.Р. Найт, Джордж МакКэй, Даниэль Уэббер, Майкл Искиердо, Тоня Пинкинс, Эми Мари Уоллес, Эрика Андерсон, Джульетт Анджело, Кристиан Бруун, Миранда Калдерон, Кевин Дэннис, Джулиан ДеЗотти, Джоанна Дуглас, Колин Дойл
О фильме: Учитель английского языка отправляется в прошлое, чтобы предотвратить убийство Кеннеди, но в результате сильно привязывается к той жизни, которую он сделал в ушедшей эпохе.
Качество: HDTVRip
Видео: XviD, ~ 1925 Кбит/с, 704x352
Аудио: Русский (AC3, 6 ch, 448 Кбит/с)
Продолжительность: 7 х ~ 00:55:00, 1 х ~ 01:20:00
Перевод: Профессиональный многоголосый (LostFilm)

Mediainfo

Полное имя : D:11.22.63 - tahiy11.22.63.S01E04 - tahiy.avi
Формат : AVI
Формат/Информация : Audio Video Interleave
Размер файла : 906 Мбайт
Продолжительность : 52 м.
Общий поток : 2397 Кбит/сек
Программа кодирования : VirtualDubMod 1.5.10.3 | www.virtualdub-fr.org || (build 2550/release)
Библиотека кодирования : VirtualDubMod build 2550/release
Видео
Идентификатор : 0
Формат : MPEG-4 Visual
Профиль формата : Advanced Simple@L5
Параметр BVOP формата : 1
Параметр QPel формата : Нет
Параметр GMC формата : Без точки перехода
Параметр матрицы формата : Default (MPEG)
Идентификатор кодека : XVID
Идентификатор кодека/Подсказка : XviD
Продолжительность : 52 м.
Битрейт : 1940 Кбит/сек
Ширина : 704 пикселя
Высота : 352 пикселя
Соотношение сторон : 2,000
Частота кадров : 23,976 (23976/1000) кадра/сек
Цветовое пространство : YUV
Субдискретизация насыщенности : 4:2:0
Битовая глубина : 8 бит
Тип развёртки : Прогрессивная
Метод сжатия : С потерями
Бит/(Пиксели*Кадры) : 0.326
Размер потока : 733 Мбайт (81%)
Библиотека кодирования : XviD 73
Аудио
Идентификатор : 1
Формат : AC-3
Формат/Информация : Audio Coding 3
Расширение режима : CM (complete main)
Параметр Endianness формата : Big
Идентификатор кодека : 2000
Продолжительность : 52 м.
Вид битрейта : Постоянный
Битрейт : 448 Кбит/сек
Каналы : 6 каналов
Расположение каналов : Front: L C R, Side: L R, LFE
Частота : 48,0 КГц
Частота кадров : 31,250 кадров/сек (1536 spf)
Метод сжатия : С потерями
Размер потока : 169 Мбайт (19%)
Выравнивание : Разделение по промежуткам
Продолжительность промежутка : 42 мс. (1,00 видеокадр)
Время предзагрузки промежутка : 500 мс.

[Профиль] [ЛС]
Показать сообщения:    

Текущее время: Сегодня 22:06

Часовой пояс: GMT



Вы не можете начинать темы
Вы не можете отвечать на сообщения
Вы не можете редактировать свои сообщения
Вы не можете удалять свои сообщения
Вы не можете голосовать в опросах
Вы не можете прикреплять файлы к сообщениям
Вы не можете скачивать файлы