Аэропорт 77 / Airport '77 (Джерри Джеймсон / Jerry Jameson) [1977, США, Боевик, триллер, драма, DVDRip] MVO

 
Author Message

Один 777 ®

Gender:

Longevity: 5 years 3 months

Posts: 506

Location: Луцк



: 7 ()

Mega Seeder 1 (1) Mega Seeder 4 (1) Mega Releaser 2 (1)
Торрент-статистика

Post 31-Jan-2017 08:25

[Quote]

Аэропорт 77 / Airport '77
«В ловушке под водой в Бермудском Треугольнике»
Год выпуска: 1977
Страна: США / Universal Pictures
Жанр: Боевик, триллер, драма
Продолжительность: 01:48:41
Перевод: Профессиональный (многоголосый закадровый)
Cубтитры: нет
Режиссер: Джерри Джеймсон / Jerry Jameson
В ролях: Джек Леммон, Ли Грант, Бренда Ваккаро, Джордж Кеннеди, Джеймс Стюарт, Оливия де Хэвиллэнд, Даррен МакГэвин, Кристофер Ли, Роберт Фоксуорт, Кэтлин Куинлан, Роберт Хукс, Монти Маркэм, Памела Беллвуд, Джозеф Коттен...
Описание: Известный магнат и поклонник искусств должен перевезти коллекцию картин на открытие музея в Палм-Бич на роскошном Боинге класса «люкс». Полет превращается в настоящий великосветский прием. Но и богатым придется заплакать: самолет захватывают и вскоре топят в океане воздушные пираты…

Сэмпл: http://sendfile.su/1304113

Качество видео: DVDRip
Формат видео: AVI
Видео кодек: XviD
Аудио кодек: МР3
Видео: 640x272 (2.35:1), 25 fps, XviD build 73 ~827 kbps avg, 0.19 bit/pixel
Аудио: 48 kHz, MPEG Layer 3, 2 ch, ~128.00 kbps avg

MediaInfo

Общее
Полное имя : F:\Aeroport.77.DVDRip.740.[Один 777].avi
Формат : AVI
Формат/Информация : Audio Video Interleave
Размер файла : 750 Мбайт
Продолжительность : 1 ч. 48 м.
Общий поток : 965 Кбит/сек
Программа кодирования : VirtualDubMod 1.5.10.3 | www.virtualdub-fr.org || (build 2550/release)
Библиотека кодирования : VirtualDubMod build 2550/release
Видео
Идентификатор : 0
Формат : MPEG-4 Visual
Профиль формата : Advanced Simple@L5
Параметр BVOP формата : 1
Параметр QPel формата : Нет
Параметр GMC формата : Без точки перехода
Параметр матрицы формата : Default (H.263)
Идентификатор кодека : XVID
Идентификатор кодека/Подсказка : XviD
Продолжительность : 1 ч. 48 м.
Битрейт : 827 Кбит/сек
Ширина : 640 пикселей
Высота : 272 пикселя
Соотношение сторон : 2,35:1
Частота кадров : 25,000 кадров/сек
Цветовое пространство : YUV
Субдискретизация насыщенности : 4:2:0
Битовая глубина : 8 бит
Тип развёртки : Прогрессивная
Метод сжатия : С потерями
Бит/(Пиксели*Кадры) : 0.190
Размер потока : 643 Мбайт (86%)
Библиотека кодирования : XviD 73
Аудио
Идентификатор : 1
Формат : MPEG Audio
Версия формата : Version 1
Профиль формата : Layer 3
Идентификатор кодека : 55
Идентификатор кодека/Подсказка : MP3
Продолжительность : 1 ч. 48 м.
Вид битрейта : Постоянный
Битрейт : 128 Кбит/сек
Каналы : 2 канала
Частота : 48,0 КГц
Метод сжатия : С потерями
Размер потока : 99,5 Мбайт (13%)
Выравнивание : Соединение по промежуткам
Продолжительность промежутка : 40 мс. (1,00 видеокадр)
Время предзагрузки промежутка : 504 мс.
Библиотека кодирования : LAME3.99r
Настройки программы : -m s -V 4 -q 2 -lowpass 17 -b 128

Скриншот c названием фильма

Скриншоты

[Profile] [PM]
Кто просматривает тему:

Forum Topic Author Size
Фильмы (HD DVD, Blu-ray и BDRemux) Аэроплан / Airplane! (1980) Blu-Ray [1080p] sergej644 28.23 GB
Фильмы (HD DVD, Blu-ray и BDRemux) Аэроплан 2 / Airplane II: The Sequel (1982) BDRemux [1080p] sergej644 17.78 GB
R.G.TorrentFilm Video Аэропорт / Airport (Джордж Ситон / George Seaton, Генри Хэтэуэй / Henry Hathaway) [1970, США, Боевик, триллер, драма, HDRip] MVO (SomeWax) Один 777 1.46 GB
R.G.TorrentFilm Video Аэропорт 1975 / Airport 1975 (Джек Смайт / Jack Smight) [1974, США, Триллер, драма, HDRip] MVO (Студия "Нота") Один 777 1.46 GB
Документальные HD Аэропорт 24/7: Майами / Airport 24/7: Miami [2012, Познавательный, Travel Channel HD, HDTV 1080i] TorrentFilm 11.28 GB
R.G.TorrentFilm Video Аэропорт 77 / Airport '77 (Джерри Джеймсон / Jerry Jameson) [1977, США, Боевик, триллер, драма, DVDRip] MVO Один 777 1.46 GB
Отечественные мультсериалы Будни аэропорта (2014) WEBRip [720p] (Серии 01-52 из 52) sergej644 8.22 GB
R.G.TorrentFilm Video Конкорд: Аэропорт-79 / The Concorde: Airport '79 (Дэвид Лоуэлл Рич / David Lowell Rich) [1979, США, Боевик, триллер, драма, DVDRip] MVO (ТВ новости) Один 777 752 MB
Display posts from previous:    

The time now is: Today 08:33

All times are GMT



You cannot post new topics in this forum
You cannot reply to topics in this forum
You cannot edit your posts in this forum
You cannot delete your posts in this forum
You cannot vote in polls in this forum
You cannot attach files in this forum
You cannot download files in this forum