1066 - Нормандское завоевание Англии / 1066 - The Battle for Middle Earth (Джастин Харди / Justin Hardy) [2009, Великобритания, боевик, военный, история, DVDRip] VO (SDI Media) + Original Eng

 
Автор Сообщение

TorrentFilm ®

Пол:

Стаж: 1 год 11 месяцев

Сообщений: 7741



Награды: Нет

Торрент-статистика

Создавать темы 04-Май-2015 00:04

[Цитировать]

1066 - Нормандское завоевание Англии / 1066 - The Battle for Middle Earth
Страна: Великобритания
Студия: Hardy Pictures
Жанр: боевик, военный, история
Год выпуска: 2009
Продолжительность: 00:48:37 + 00:52:00 + 00:48:22
Перевод: Студийный (одноголосый закадровый) - SDI Media
Cубтитры: нет
Оригинальная аудиодорожка: английский
Режиссер: Джастин Харди / Justin Hardy
В ролях: Иэн Холм, Майк Бэйли, Френсис Маджи, Тим Плестер, Сёрен Бидер, Кейт Эмблер, Джемма Лоуренс, Сэм Харди, Катрин Бах, Эмбер Селеста ...
Описание: Фильм проливает свет на одно из самых темных событий в британской истории — Нормандское завоевание. Много лет люди знали лишь позицию британского короля, эта история покажет вам мнение участников сражения — воинов, сельских жителей. Эта история о людях трех различных народов — нормадцах, англичан и викингах.
Доп. информация: Рип сделан из этого DVD9. (Который на постере)-- --1066 - The Battle for Middle Earth (2009)_DVDRip_Part - 1_Sample_.avi
1066 - The Battle for Middle Earth (2009)_DVDRip_Part - 2_Sample_.avi
1066 - The Battle for Middle Earth (2009)_DVDRip_Part - 3_Sample_.avi--Качество видео: DVDRip
Формат видео: AVI
Видео: 720x400 (1.80:1), 25 fps, XviD build 50 ~1753 kbps avg, 0.24 bit/pixel
Аудио 1: 48 kHz, AC3 Dolby Digital, 2/0 (L,R) ch, ~192 kbps, Русский - VO SDI Media
Аудио 2: 48 kHz, AC3 Dolby Digital, 2/0 (L,R) ch, ~192 kbps, Английский

AviInfo

File: 1066 - The Battle for Middle Earth (2009)_DVDRip_Part - 1_.avi
Title: 1066 - The Battle for Middle Earth (2009)
Copyleft: Ripped_by_rjhlb777
Genre: Action/Drama/History/War
Category: TV Series
Comment: VO ("SDI Media") + Original Eng
FileSize: 748.57 Mb ( 784 930 816 bytes )
Play length: 00:48:37.199 (72930 frames)
Subtitles: Not Present
Video: 720x400 (1.80:1), 25 fps, XviD build 50 ~1753 kbps avg, 0.24 bit/pixel
Audio #1: 48 kHz, AC3 Dolby Digital, 2/0 (L,R) ch, ~192 kbps
Audio #2: 48 kHz, AC3 Dolby Digital, 2/0 (L,R) ch, ~192 kbps-
-
-File: 1066 - The Battle for Middle Earth (2009)_DVDRip_Part - 2_.avi
Title: 1066 - The Battle for Middle Earth (2009)
Copyleft: Ripped_by_rjhlb777
Genre: Action/Drama/History/War
Category: TV Series
Comment: VO ("SDI Media") + Original Eng
FileSize: 748.61 Mb ( 784 969 728 bytes )
Play length: 00:52:00.199 (78005 frames)
Subtitles: Not Present
Video: 720x400 (1.80:1), 25 fps, XviD build 50 ~1613 kbps avg, 0.22 bit/pixel
Audio #1: 48 kHz, AC3 Dolby Digital, 2/0 (L,R) ch, ~192 kbps
Audio #2: 48 kHz, AC3 Dolby Digital, 2/0 (L,R) ch, ~192 kbps-
-
-File: 1066 - The Battle for Middle Earth (2009)_DVDRip_Part - 3_.avi
Title: 1066 - The Battle for Middle Earth (2009)
Copyleft: Ripped_by_rjhlb777
Genre: Action/Drama/History/War
Category: TV Series
Comment: VO ("SDI Media") + Original Eng
FileSize: 747.90 Mb ( 784 234 496 bytes )
Play length: 00:48:22.199 (72555 frames)
Subtitles: Not Present
Video: 720x400 (1.80:1), 25 fps, XviD build 50 ~1762 kbps avg, 0.24 bit/pixel
Audio #1: 48 kHz, AC3 Dolby Digital, 2/0 (L,R) ch, ~192 kbps
Audio #2: 48 kHz, AC3 Dolby Digital, 2/0 (L,R) ch, ~192 kbps

MediaInfo

General
Complete name : C:\Temp\1066 - The Battle for Middle Earth (2009)_DVDRip_\1066 - The Battle for Middle Earth (2009)_DVDRip_Part - 1_.avi
Format : AVI
Format/Info : Audio Video Interleave
File size : 749 MiB
Duration : 48mn 37s
Overall bit rate : 2 153 Kbps
Movie name : 1066 - The Battle for Middle Earth (2009)
Genre : Action/Drama/History/War
Writing application : VirtualDubMod 1.5.10.3 | www.virtualdub-fr.org || (build 2550/release)
Original source form/Name : TV Series
Copyright : Ripped_by_rjhlb777
Comment : VO ("SDI Media") + Original Eng
Video
ID : 0
Format : MPEG-4 Visual
Format profile : Advanced Simple@L5
Format settings, BVOP : 2
Format settings, QPel : No
Format settings, GMC : No warppoints
Format settings, Matrix : Default (H.263)
Codec ID : XVID
Codec ID/Hint : XviD
Duration : 48mn 37s
Bit rate : 1 754 Kbps
Width : 720 pixels
Height : 400 pixels
Display aspect ratio : 16:9
Frame rate : 25.000 fps
Color space : YUV
Chroma subsampling : 4:2:0
Bit depth : 8 bits
Scan type : Progressive
Compression mode : Lossy
Bits/(Pixel*Frame) : 0.244
Stream size : 610 MiB (81%)
Writing library : XviD 1.2.1 (UTC 2008-12-04)
Audio #1
ID : 1
Format : AC-3
Format/Info : Audio Coding 3
Mode extension : CM (complete main)
Format settings, Endianness : Big
Codec ID : 2000
Duration : 48mn 36s
Bit rate mode : Constant
Bit rate : 192 Kbps
Channel(s) : 2 channels
Channel positions : Front: L R
Sampling rate : 48.0 KHz
Bit depth : 16 bits
Compression mode : Lossy
Stream size : 66.7 MiB (9%)
Alignment : Split accross interleaves
Interleave, duration : 40 ms (1.00 video frame)
Interleave, preload duratio : 500 ms
Audio #2
ID : 2
Format : AC-3
Format/Info : Audio Coding 3
Mode extension : CM (complete main)
Format settings, Endianness : Big
Codec ID : 2000
Duration : 48mn 36s
Bit rate mode : Constant
Bit rate : 192 Kbps
Channel(s) : 2 channels
Channel positions : Front: L R
Sampling rate : 48.0 KHz
Bit depth : 16 bits
Compression mode : Lossy
Stream size : 66.7 MiB (9%)
Alignment : Split accross interleaves
Interleave, duration : 40 ms (1.00 video frame)
Interleave, preload duratio : 500 ms-
-
-General
Complete name : C:\Temp\1066 - The Battle for Middle Earth (2009)_DVDRip_\1066 - The Battle for Middle Earth (2009)_DVDRip_Part - 2_.avi
Format : AVI
Format/Info : Audio Video Interleave
File size : 749 MiB
Duration : 52mn 0s
Overall bit rate : 2 013 Kbps
Movie name : 1066 - The Battle for Middle Earth (2009)
Genre : Action/Drama/History/War
Writing application : VirtualDubMod 1.5.10.3 | www.virtualdub-fr.org || (build 2550/release)
Original source form/Name : TV Series
Copyright : Ripped_by_rjhlb777
Comment : VO ("SDI Media") + Original Eng
Video
ID : 0
Format : MPEG-4 Visual
Format profile : Advanced Simple@L5
Format settings, BVOP : 2
Format settings, QPel : No
Format settings, GMC : No warppoints
Format settings, Matrix : Default (H.263)
Codec ID : XVID
Codec ID/Hint : XviD
Duration : 52mn 0s
Bit rate : 1 614 Kbps
Width : 720 pixels
Height : 400 pixels
Display aspect ratio : 16:9
Frame rate : 25.000 fps
Color space : YUV
Chroma subsampling : 4:2:0
Bit depth : 8 bits
Scan type : Progressive
Compression mode : Lossy
Bits/(Pixel*Frame) : 0.224
Stream size : 600 MiB (80%)
Writing library : XviD 1.2.1 (UTC 2008-12-04)
Audio #1
ID : 1
Format : AC-3
Format/Info : Audio Coding 3
Mode extension : CM (complete main)
Format settings, Endianness : Big
Codec ID : 2000
Duration : 51mn 59s
Bit rate mode : Constant
Bit rate : 192 Kbps
Channel(s) : 2 channels
Channel positions : Front: L R
Sampling rate : 48.0 KHz
Bit depth : 16 bits
Compression mode : Lossy
Stream size : 71.4 MiB (10%)
Alignment : Split accross interleaves
Interleave, duration : 40 ms (1.00 video frame)
Interleave, preload duratio : 500 ms
Audio #2
ID : 2
Format : AC-3
Format/Info : Audio Coding 3
Mode extension : CM (complete main)
Format settings, Endianness : Big
Codec ID : 2000
Duration : 51mn 59s
Bit rate mode : Constant
Bit rate : 192 Kbps
Channel(s) : 2 channels
Channel positions : Front: L R
Sampling rate : 48.0 KHz
Bit depth : 16 bits
Compression mode : Lossy
Stream size : 71.4 MiB (10%)
Alignment : Split accross interleaves
Interleave, duration : 40 ms (1.00 video frame)
Interleave, preload duratio : 500 ms-
-
-General
Complete name : C:\Temp\1066 - The Battle for Middle Earth (2009)_DVDRip_\1066 - The Battle for Middle Earth (2009)_DVDRip_Part - 3_.avi
Format : AVI
Format/Info : Audio Video Interleave
File size : 748 MiB
Duration : 48mn 22s
Overall bit rate : 2 162 Kbps
Movie name : 1066 - The Battle for Middle Earth (2009)
Genre : Action/Drama/History/War
Writing application : VirtualDubMod 1.5.10.3 | www.virtualdub-fr.org || (build 2550/release)
Original source form/Name : TV Series
Copyright : Ripped_by_rjhlb777
Comment : VO ("SDI Media") + Original Eng
Video
ID : 0
Format : MPEG-4 Visual
Format profile : Advanced Simple@L5
Format settings, BVOP : 2
Format settings, QPel : No
Format settings, GMC : No warppoints
Format settings, Matrix : Default (H.263)
Codec ID : XVID
Codec ID/Hint : XviD
Duration : 48mn 22s
Bit rate : 1 763 Kbps
Width : 720 pixels
Height : 400 pixels
Display aspect ratio : 16:9
Frame rate : 25.000 fps
Color space : YUV
Chroma subsampling : 4:2:0
Bit depth : 8 bits
Scan type : Progressive
Compression mode : Lossy
Bits/(Pixel*Frame) : 0.245
Stream size : 610 MiB (82%)
Writing library : XviD 1.2.1 (UTC 2008-12-04)
Audio #1
ID : 1
Format : AC-3
Format/Info : Audio Coding 3
Mode extension : CM (complete main)
Format settings, Endianness : Big
Codec ID : 2000
Duration : 48mn 21s
Bit rate mode : Constant
Bit rate : 192 Kbps
Channel(s) : 2 channels
Channel positions : Front: L R
Sampling rate : 48.0 KHz
Bit depth : 16 bits
Compression mode : Lossy
Stream size : 66.4 MiB (9%)
Alignment : Split accross interleaves
Interleave, duration : 40 ms (1.00 video frame)
Interleave, preload duratio : 500 ms
Audio #2
ID : 2
Format : AC-3
Format/Info : Audio Coding 3
Mode extension : CM (complete main)
Format settings, Endianness : Big
Codec ID : 2000
Duration : 48mn 21s
Bit rate mode : Constant
Bit rate : 192 Kbps
Channel(s) : 2 channels
Channel positions : Front: L R
Sampling rate : 48.0 KHz
Bit depth : 16 bits
Compression mode : Lossy
Stream size : 66.4 MiB (9%)
Alignment : Split accross interleaves
Interleave, duration : 40 ms (1.00 video frame)
Interleave, preload duratio : 500 ms

Скриншот c названием фильма

Скриншоты

-- --
[Профиль] [ЛС]

Создавать темы 06-Авг-2015 22:35 (спустя 3 месяца 2 дня)

Топик был перенесен из форума Фильмы до 2014 года в форум Фильмы до 2012 года
sergej644
 

Создавать темы 12-Июн-2016 08:49 (спустя 1 год 1 месяц)

Топик был перенесен из форума Фильмы 2011 года в форум Фильмы 2009 года
Russian Mafia
 
Кто просматривает тему:

Показать сообщения:    

Текущее время: Сегодня 18:21

Часовой пояс: GMT



Вы не можете начинать темы
Вы не можете отвечать на сообщения
Вы не можете редактировать свои сообщения
Вы не можете удалять свои сообщения
Вы не можете голосовать в опросах
Вы не можете прикреплять файлы к сообщениям
Вы не можете скачивать файлы