В поисках Дори / Finding Dory (2016) BDRip 1080p | 3D-Video | halfOU | Лицензия

 
Author Message

Russian Mafia ®

Gender:

Longevity: 4 years 11 months

Posts: 4244



: 10 ()

Top Releaser 2 (1) Mega Seeder 4 (1) Mega Seeder 2 (1)
Торрент-статистика

Post 17-Nov-2016 15:26

[Quote]

Информация о фильме
Название: В поисках Дори
Оригинальное название: Finding Dory
Год выхода: 2016
Жанр: мультфильм, комедия, приключения, семейный
Режиссер: Эндрю Стэнтон, Энгус МакЛэйн
В ролях: Эллен ДеДженерес, Альберт Брукс, Эд О’Нил, Кэйтлин Олсон, Хайден Роуленс, Тай Бурелл, Дайан Китон, Юджин Леви, Слоун Мюррэй, Идрис Эльба
Описание:
История «В поисках Немо» продолжается! Главная героиня – синяя рыбка из семейства голубых хирургов. Это Дори. Она весёлая, дружелюбная, добрая и очень любознательная. Вот только она страдает и волнуется. Дори много знала, но забыла. Почти всё. Отец и мать. Семья. Родственники. Воспоминания далёкого детства расплываются. От воспоминаний болит голова, на вопросы нет ответов. А ещё Дори временами вспоминает о жемчужине Моро Бэй. Отважной рыбке пора в путь! Ответы есть, пора их получить. Немо и Марлин помогут - они верные друзья. Они всегда рядом. А, для начала, можно посетить институт морской жизни, отправившись в Монтеррей…

Страна: США
Студия: Pixar Animation Studios, Walt Disney Pictures
Продолжительность: 01:37:03
Перевод: Профессиональный (дублированный) Blu-ray CEE
Релиз:
Формат 3D: Half OverUnder / Вертикальная анаморфная стереопара
Порядок ракурсов: Левый ракурс первый
Файл
Формат: Matroska
Качество: BDRip 1080p
Источник: Finding.Dory.2016.COMPLETE.BluRay-TRUEDEF
Видео: 1920x1080 at 23.976 fps, x264@L4.1, ~12400 kbps avg
Aудио#1: Russian: 48 kHz, AC3, 3/2 (L,C,R,l,r) + LFE ch, ~640 kbps avg |Дубляж, Blu-ray CEE|
Aудио#2: Ukrainian: 48 kHz, AAC, 2/0 (L,R) ch, ~160 kbps avg |Дубляж, iTunes|
Аудио#3: English: 48 kHz, DTS, 3/2 (L,C,R,l,r) + LFE ch, ~1509 kbps avg
Aудио#4: English: 48 kHz, AC3, 2/0 (L,R) ch, ~320 kbps avg |Deive|
Aудио#5: English: 48 kHz, AC3, 2/0 (L,R) ch, ~320 kbps avg |Audio Commentary with Director Andrew Stanton, Co-Director Angus MacLane, and Producer Lindsey Collins|
Субтитры: Russian (iTunes), English (iTunes), English, English (SDH)
***Сохранены и подписаны оригинальные главы как на Blu-ray.
***Локализованный русский видеоряд.

MediaInfo

General
Unique ID : 233761346229642072361819437354013864876 (0xAFDCCC33140FB73A90BF543A04B2B3AC)
Complete name : Finding.Dory.2016.1080p.3D.BluRay.Half-OU.Rus.Ukr.3xEng.HDCLUB.mkv
Format : Matroska
Format version : Version 2
File size : 10.4 GiB
Duration : 1 h 37 min
Overall bit rate : 15.3 Mb/s
Movie name : Finding Dory (2016) [3D] - Release for HDCLUB
Encoded date : UTC 2016-11-17 12:46:58
Writing application : mkvmerge v3.4.0 ('Rapunzel') built on May 15 2010 09:38:20
Writing library : libebml v0.8.0 + libmatroska v0.9.0
Video
ID : 1
Format : AVC
Format/Info : Advanced Video Codec
Format profile : High@L4.1
MultiView_Count : 2
MultiView_Layout : Both Eye
Format settings, CABAC : Yes
Format settings, ReFrames : 4 frames
Codec ID : V_MPEG4/ISO/AVC
Duration : 1 h 37 min
Width : 1 920 pixels
Height : 1 080 pixels
Display aspect ratio : 16:9
Frame rate mode : Constant
Frame rate : 23.976 (24000/1001) FPS
Color space : YUV
Chroma subsampling : 4:2:0
Bit depth : 8 bits
Scan type : Progressive
Title : Finding Dory (2016) [3D] - Release for HDCLUB
Writing library : x264 core 148 r2705 3f5ed56
Encoding settings : cabac=1 / ref=4 / deblock=1:-3:-3 / analyse=0x3:0x133 / me=umh / subme=11 / psy=1 / psy_rd=1.00:0.00 / mixed_ref=1 / me_range=32 / chroma_me=1 / trellis=2 / 8x8dct=1 / cqm=0 / deadzone=21,11 / fast_pskip=0 / chroma_qp_offset=-2 / threads=16 / lookahead_threads=2 / sliced_threads=0 / nr=0 / decimate=1 / interlaced=0 / bluray_compat=0 / constrained_intra=0 / bframes=7 / b_pyramid=2 / b_adapt=2 / b_bias=0 / direct=1 / weightb=1 / open_gop=0 / weightp=2 / keyint=250 / keyint_min=23 / scenecut=40 / intra_refresh=0 / rc_lookahead=60 / rc=crf / mbtree=0 / crf=17.0 / qcomp=0.60 / qpmin=0 / qpmax=69 / qpstep=4 / vbv_maxrate=50000 / vbv_bufsize=62500 / crf_max=0.0 / nal_hrd=none / filler=0 / frame-packing=4 / ip_ratio=1.35 / pb_ratio=1.25 / aq=3:0.80
Language : English
Default : Yes
Forced : No
Color range : Limited
Matrix coefficients : BT.709
Audio #1
ID : 2
Format : AC-3
Format/Info : Audio Coding 3
Mode extension : CM (complete main)
Format settings, Endianness : Big
Codec ID : A_AC3
Duration : 1 h 37 min
Bit rate mode : Constant
Bit rate : 640 kb/s
Channel(s) : 6 channels
Channel positions : Front: L C R, Side: L R, LFE
Sampling rate : 48.0 kHz
Frame rate : 31.250 FPS (1536 spf)
Compression mode : Lossy
Stream size : 444 MiB (4%)
Title : AC3 5.1 @ 640 kbps - DUB, Blu-ray CEE
Language : Russian
Default : Yes
Forced : No
Audio #2
ID : 3
Format : AAC
Format/Info : Advanced Audio Codec
Format profile : HE-AAC / LC
Codec ID : A_AAC
Duration : 1 h 37 min
Channel(s) : 2 channels
Channel positions : Front: L R
Sampling rate : 96.0 kHz / 48.0 kHz
Frame rate : 46.875 FPS (1024 spf)
Compression mode : Lossy
Delay relative to video : 788 ms
Title : AAC 2.0 @ 160 kbps - DUB, iTunes
Language : Ukrainian
Default : No
Forced : No
Audio #3
ID : 4
Format : DTS
Format/Info : Digital Theater Systems
Mode : 16
Format settings, Endianness : Big
Codec ID : A_DTS
Duration : 1 h 37 min
Bit rate mode : Constant
Bit rate : 1 509 kb/s
Channel(s) : 6 channels
Channel positions : Front: L C R, Side: L R, LFE
Sampling rate : 48.0 kHz
Frame rate : 93.750 FPS (512 spf)
Bit depth : 24 bits
Compression mode : Lossy
Delay relative to video : 11 ms
Stream size : 1.02 GiB (10%)
Title : DTS 5.1 @ 1536 kbps
Language : English
Default : No
Forced : No
Audio #4
ID : 5
Format : AC-3
Format/Info : Audio Coding 3
Mode extension : CM (complete main)
Format settings, Endianness : Big
Codec ID : A_AC3
Duration : 1 h 37 min
Bit rate mode : Constant
Bit rate : 320 kb/s
Channel(s) : 2 channels
Channel positions : Front: L R
Sampling rate : 48.0 kHz
Frame rate : 31.250 FPS (1536 spf)
Compression mode : Lossy
Stream size : 222 MiB (2%)
Title : AC3 2.0 @ 320 kbps - Audio Commentary with Director Andrew Stanton, Co-Director Angus MacLane, and Producer Lindsey Collins
Language : English
Default : No
Forced : No
Audio #5
ID : 6
Format : AC-3
Format/Info : Audio Coding 3
Format profile : Dolby Digital
Mode extension : CM (complete main)
Format settings, Endianness : Big
Codec ID : A_AC3
Duration : 1 h 37 min
Bit rate mode : Constant
Bit rate : 320 kb/s
Channel(s) : 2 channels
Channel positions : Front: L R
Sampling rate : 48.0 kHz
Frame rate : 31.250 FPS (1536 spf)
Compression mode : Lossy
Stream size : 222 MiB (2%)
Title : AC3 2.0 @ 320 kbps - Deive
Language : English
Default : No
Forced : No
Text #1
ID : 7
Format : UTF-8
Codec ID : S_TEXT/UTF8
Codec ID/Info : UTF-8 Plain Text
Title : iTunes
Language : Russian
Default : No
Forced : No
Text #2
ID : 8
Format : UTF-8
Codec ID : S_TEXT/UTF8
Codec ID/Info : UTF-8 Plain Text
Title : iTunes
Language : English
Default : No
Forced : No
Text #3
ID : 9
Format : UTF-8
Codec ID : S_TEXT/UTF8
Codec ID/Info : UTF-8 Plain Text
Language : English
Default : No
Forced : No
Text #4
ID : 10
Format : UTF-8
Codec ID : S_TEXT/UTF8
Codec ID/Info : UTF-8 Plain Text
Title : SDH
Language : English
Default : No
Forced : No
Menu
00:00:00.000 : enrologue
00:02:35.739 : en:Lost At Sea
00:06:50.243 : en:Life With Dory
00:10:53.194 : en:Losing Dory
00:13:33.187 : enory Leads
00:15:25.132 : en:Totally Sick
00:17:03.314 : en:Shipping Lanes
00:19:35.466 : en:Marine Life Institute
00:21:35.294 : en:Under Quarantine
00:24:58.705 : en:Getting In
00:27:08.543 : en:No Pipes
00:30:33.206 : en:Manifest Destiny
00:35:00.265 : en:Operation Becky
00:37:52.020 : en:Stroller Crossing
00:40:17.999 : en:Stuck
00:41:06.672 : en:Argument
00:42:30.423 : en:Touch Pool
00:46:03.427 : en:Confession
00:48:41.710 : en:Tag
00:50:27.858 : en:Childhood Home
00:55:06.678 : enipe Travel
00:57:05.839 : en:Meeting Marlin
01:00:41.346 : en:Off To Cleveland
01:04:32.952 : en:All Alone
01:10:36.816 : en:Game Plan
01:12:28.302 : en:Stop That Truck
01:14:09.862 : en:Time To Go
01:18:26.493 : en:Big Finish
01:26:49.329 : en:Epilogue

Скриншоты

[Profile] [PM]
Кто просматривает тему:

Display posts from previous:    

The time now is: Today 13:29

All times are GMT



You cannot post new topics in this forum
You cannot reply to topics in this forum
You cannot edit your posts in this forum
You cannot delete your posts in this forum
You cannot vote in polls in this forum
You cannot attach files in this forum
You cannot download files in this forum