10 000 км: Любовь на расстоянии / 10.000 Km (2014) HDTV 1080i | P

 
Автор Сообщение

достали все ®

Пол:

Стаж: 1 год 8 месяцев

Сообщений: 6527



Награды: 12 (Подробнее)

Mega Seeder 5 (Количество: 1) За внесенный вклад в развитие сайта (Количество: 1) Top Releaser 2 (Количество: 1)
Торрент-статистика

Создавать темы 08-Авг-2016 14:57

[Цитировать]

Информация о фильме
Название: 10 000 км: Любовь на расстоянии
Оригинальное название: 10.000 Km
Год выхода: 2014
Жанр: Драма, мелодрама, комедия
Режиссер: Карлос Маркус-Марсет
В ролях: Наталия Тена, Дэвид Вердагер
О фильме:
Могут ли онлайн-технологии помочь любви пережить разлуку длиною в год и расстояние в 10,000 километров?

Страна: Испания
Студия: La Panda, Lastor Media, MEDIA, Televisión
Продолжительность: 01:38:20
Перевод: Профессиональный многоголосый
Файл
Кодек: h.264
Качество: HDTV 1080i
Видео: MPEG-4 AVC, ~ 7805 Кбит/с, 1920x1080, 25.000 кадр/с
Звук:
Русский (AC3, 6 ch, 448 Кбит/с) / Профессиональный многоголосый
Русский (MP2, 2 ch, 192 Кбит/с) / Профессиональный многоголосый
Семпл

О релизе

Автор релиза - Silverok, первоисточник - Кинопоказ HD2

MI

General
ID : 1 (0x1)
Complete name : C:uTorrent10000km.2014.HDTV.1080i.MediaClub.ts
Format : MPEG-TS
File size : 6.11 GiB
Duration : 1 h 38 min
Overall bit rate mode : Variable
Overall bit rate : 8 891 kb/s
Video
ID : 3031 (0xBD7)
Menu ID : 1234 (0x4D2)
Format : AVC
Format/Info : Advanced Video Codec
Format profile : Main@L4
Format settings, CABAC : Yes
Format settings, ReFrames : 4 frames
Format settings, GOP : M=1, N=32
Codec ID : 27
Duration : 1 h 38 min
Bit rate : 7 805 kb/s
Width : 1 920 pixels
Height : 1 080 pixels
Display aspect ratio : 16:9
Frame rate : 25.000 FPS
Color space : YUV
Chroma subsampling : 4:2:0
Bit depth : 8 bits
Scan type : Interlaced
Scan type, store method : Separated fields
Scan order : Top Field First
Bits/(Pixel*Frame) : 0.151
Stream size : 5.36 GiB (88%)
Color range : Limited
Color primaries : BT.709
Transfer characteristics : BT.709
Matrix coefficients : BT.709
Audio #1
ID : 3032 (0xBD8)
Menu ID : 1234 (0x4D2)
Format : AC-3
Format/Info : Audio Coding 3
Mode extension : CM (complete main)
Format settings, Endianness : Big
Codec ID : 6
Duration : 1 h 38 min
Bit rate mode : Constant
Bit rate : 448 kb/s
Channel(s) : 6 channels
Channel positions : Front: L C R, Side: L R, LFE
Sampling rate : 48.0 kHz
Frame rate : 31.250 FPS (1536 spf)
Compression mode : Lossy
Stream size : 315 MiB (5%)
Language : Russian
Audio #2
ID : 3033 (0xBD9)
Menu ID : 1234 (0x4D2)
Format : MPEG Audio
Format version : Version 1
Format profile : Layer 2
Codec ID : 3
Duration : 1 h 38 min
Bit rate mode : Constant
Bit rate : 192 kb/s
Channel(s) : 2 channels
Sampling rate : 48.0 kHz
Compression mode : Lossy
Stream size : 135 MiB (2%)
Language : Russian

Скриншоты

[Профиль] [ЛС]
Кто просматривает тему:

Показать сообщения:    

Текущее время: Сегодня 18:01

Часовой пояс: GMT



Вы не можете начинать темы
Вы не можете отвечать на сообщения
Вы не можете редактировать свои сообщения
Вы не можете удалять свои сообщения
Вы не можете голосовать в опросах
Вы не можете прикреплять файлы к сообщениям
Вы не можете скачивать файлы