007: СПЕКТР / Spectre (2015) BDRip 720p | Лицензия

 
Автор Сообщение

BOSS ®

Пол:

Стаж: 2 года 1 месяц

Сообщений: 3719

Откуда: ODESSA



Награды: 20 (Подробнее)

Mega Releaser 1 (Количество: 1) Top Keeper 3 (Количество: 1) Top Seeder 3 (Количество: 1)
Торрент-статистика

Создавать темы 15-Фев-2016 19:30

[Цитировать]

Информация о фильме
Название: 007: СПЕКТР
Оригинальное название: Spectre
Год выхода: 2015
Жанр: боевик, триллер, приключения
Режиссер: Сэм Мендес
В ролях: Дэниэл Крэйг, Кристоф Вальц, Леа Сейду, Рэйф Файнс, Моника Беллуччи, Бен Уишоу, Наоми Харрис, Дэйв Батиста, Эндрю Скотт, Рори Киннер
О фильме: Зашифрованное послание из неизвестного источника выводит Бонда на след зловещей глобальной организации под кодовым названием СПЕКТР, в то время как М пытается спасти секретную разведывательную службу от ликвидации.

Выпущено: Metro-Goldwyn-Mayer, Columbia Pictures
Продолжительность: 02:28:06
Перевод: Дублированный (лицензия) + украинский дублированный (лицензия)
Файл
Кодек: x264
Качество: BDRip (источник: Blu-ray Disc)
Видео: 1280x538 (2,40:1), 23.976 fps, 6155 kbps
Аудио #1: AC-3, 6 ch, 448 kbps (Rus)
Аудио #2: AC-3, 6 ch, 448 kbps (Ukr)
Аудио #3: AC-3, 6 ch, 448 kbps (Eng)
Субтитры: Русские (форс,полные), Украинские (форс,полные), Английские
Скачать: сэмпл
Скриншоты

MI

General
Unique ID : 201618611947854527754471418942368919245 (0x97AE550BB07D7E1686F52A5026322ECD)
Complete name : Z:Spectre.2015.BDRip.720p.Rus.Ukr.Eng.mkv
Format : Matroska
Format version : Version 2
File size : 7.76 GiB
Duration : 2h 28mn
Overall bit rate : 7 502 Kbps
Movie name : 007: СПЕКТР / Spectre (2015)
Encoded date : UTC 2016-02-15 18:40:04
Writing application : mkvmerge v5.8.0 ('No Sleep / Pillow') built on Sep 2 2012 15:37:04
Writing library : libebml v1.2.3 + libmatroska v1.3.0
Attachements : cover.png / logfile.log
Video
ID : 1
Format : AVC
Format/Info : Advanced Video Codec
Format profile : High@L4.1
Format settings, CABAC : Yes
Format settings, ReFrames : 8 frames
Codec ID : V_MPEG4/ISO/AVC
Duration : 2h 28mn
Bit rate : 6 155 Kbps
Width : 1 280 pixels
Height : 538 pixels
Display aspect ratio : 2.40:1
Frame rate mode : Constant
Frame rate : 23.976 fps
Color space : YUV
Chroma subsampling : 4:2:0
Bit depth : 8 bits
Scan type : Progressive
Bits/(Pixel*Frame) : 0.373
Stream size : 6.22 GiB (80%)
Title : 007: СПЕКТР / Spectre (2015)
Writing library : x264 core 148 r2665 a01e339
Encoding settings : cabac=1 / ref=8 / deblock=1:-3:-3 / analyse=0x3:0x133 / me=umh / subme=10 / psy=1 / psy_rd=1.00:0.00 / mixed_ref=1 / me_range=32 / chroma_me=1 / trellis=2 / 8x8dct=1 / cqm=0 / deadzone=21,11 / fast_pskip=0 / chroma_qp_offset=-2 / threads=12 / lookahead_threads=3 / sliced_threads=0 / nr=0 / decimate=0 / interlaced=0 / bluray_compat=0 / constrained_intra=0 / bframes=16 / b_pyramid=2 / b_adapt=2 / b_bias=0 / direct=3 / weightb=1 / open_gop=0 / weightp=2 / keyint=240 / keyint_min=23 / scenecut=40 / intra_refresh=0 / rc=2pass / mbtree=0 / bitrate=6155 / ratetol=1.0 / qcomp=0.60 / qpmin=0 / qpmax=69 / qpstep=4 / cplxblur=20.0 / qblur=0.5 / ip_ratio=1.40 / pb_ratio=1.30 / aq=1:0.70
Language : English
Default : Yes
Forced : No
Audio #1
ID : 2
Format : AC-3
Format/Info : Audio Coding 3
Mode extension : CM (complete main)
Format settings, Endianness : Big
Codec ID : A_AC3
Duration : 2h 28mn
Bit rate mode : Constant
Bit rate : 448 Kbps
Channel(s) : 6 channels
Channel positions : Front: L C R, Side: L R, LFE
Sampling rate : 48.0 KHz
Bit depth : 16 bits
Compression mode : Lossy
Stream size : 475 MiB (6%)
Title : Дубляж, Blu-ray EUR
Language : Russian
Default : Yes
Forced : No
Audio #2
ID : 3
Format : AC-3
Format/Info : Audio Coding 3
Mode extension : CM (complete main)
Format settings, Endianness : Big
Codec ID : A_AC3
Duration : 2h 28mn
Bit rate mode : Constant
Bit rate : 448 Kbps
Channel(s) : 6 channels
Channel positions : Front: L C R, Side: L R, LFE
Sampling rate : 48.0 KHz
Bit depth : 16 bits
Compression mode : Lossy
Stream size : 475 MiB (6%)
Title : Дубляж, Blu-ray EUR
Language : Ukrainian
Default : No
Forced : No
Audio #3
ID : 4
Format : AC-3
Format/Info : Audio Coding 3
Mode extension : CM (complete main)
Format settings, Endianness : Big
Codec ID : A_AC3
Duration : 2h 28mn
Bit rate mode : Constant
Bit rate : 448 Kbps
Channel(s) : 6 channels
Channel positions : Front: L C R, Side: L R, LFE
Sampling rate : 48.0 KHz
Bit depth : 16 bits
Compression mode : Lossy
Stream size : 475 MiB (6%)
Title : English
Language : English
Default : No
Forced : No
Text #1
ID : 5
Format : UTF-8
Codec ID : S_TEXT/UTF8
Codec ID/Info : UTF-8 Plain Text
Title : Russian (Forced)
Language : Russian
Default : Yes
Forced : No
Text #2
ID : 6
Format : UTF-8
Codec ID : S_TEXT/UTF8
Codec ID/Info : UTF-8 Plain Text
Title : Russian
Language : Russian
Default : No
Forced : No
Text #3
ID : 7
Format : UTF-8
Codec ID : S_TEXT/UTF8
Codec ID/Info : UTF-8 Plain Text
Title : Ukrainian (Forced)
Language : Ukrainian
Default : No
Forced : No
Text #4
ID : 8
Format : UTF-8
Codec ID : S_TEXT/UTF8
Codec ID/Info : UTF-8 Plain Text
Title : Ukrainian
Language : Ukrainian
Default : No
Forced : No
Text #5
ID : 9
Format : UTF-8
Codec ID : S_TEXT/UTF8
Codec ID/Info : UTF-8 Plain Text
Title : English (Forced)
Language : English
Default : No
Forced : No
Text #6
ID : 10
Format : UTF-8
Codec ID : S_TEXT/UTF8
Codec ID/Info : UTF-8 Plain Text
Title : English
Language : English
Default : No
Forced : No
Menu
00:00:00.000 : :Chapter 01
00:06:09.118 : :Chapter 02
00:13:04.784 : :Chapter 03
00:18:58.470 : :Chapter 04
00:24:46.776 : :Chapter 05
00:28:04.057 : :Chapter 06
00:32:15.558 : :Chapter 07
00:36:58.591 : :Chapter 08
00:41:56.639 : :Chapter 09
00:46:13.145 : :Chapter 10
00:50:51.923 : :Chapter 11
00:53:43.220 : :Chapter 12
01:00:21.367 : :Chapter 13
01:06:48.212 : :Chapter 14
01:10:58.963 : :Chapter 15
01:15:14.092 : :Chapter 16
01:18:55.647 : :Chapter 17
01:26:11.040 : :Chapter 18
01:29:39.999 : :Chapter 19
01:36:43.547 : :Chapter 20
01:41:44.389 : :Chapter 21
01:49:06.414 : :Chapter 22
01:55:52.820 : :Chapter 23
01:59:39.213 : :Chapter 24
02:04:19.743 : :Chapter 25
02:09:28.510 : :Chapter 26
02:14:05.662 : :Chapter 27
02:19:42.374 : :Chapter 28

x264

x264 [info]: frame I:1464 Avg QP:13.47 size:124034
x264 [info]: frame P:44857 Avg QP:15.13 size: 56176
x264 [info]: frame B:166751 Avg QP:17.11 size: 24513
x264 [info]: consecutive B-frames: 2.4% 4.1% 9.2% 10.7% 12.0% 42.1% 6.4% 1.3% 1.9% 1.4% 1.9% 1.0% 2.1% 2.5% 0.6% 0.3% 0.1%
x264 [info]: frame I:1464 Avg QP:12.61 size:138549
x264 [info]: frame P:44857 Avg QP:14.98 size: 56997
x264 [info]: frame B:166751 Avg QP:17.06 size: 24446
x264 [info]: consecutive B-frames: 2.4% 4.1% 9.2% 10.7% 12.0% 42.1% 6.4% 1.3% 1.9% 1.4% 1.9% 1.0% 2.1% 2.5% 0.6% 0.3% 0.1%
[Профиль] [ЛС]
Кто просматривает тему:

Показать сообщения:    

Текущее время: Сегодня 18:40

Часовой пояс: GMT



Вы не можете начинать темы
Вы не можете отвечать на сообщения
Вы не можете редактировать свои сообщения
Вы не можете удалять свои сообщения
Вы не можете голосовать в опросах
Вы не можете прикреплять файлы к сообщениям
Вы не можете скачивать файлы