007: СПЕКТР / Spectre (2015) BDRip 1080p | A

 
Автор Сообщение

достали все ®

Пол:

Стаж: 1 год 8 месяцев

Сообщений: 6571



Награды: 12 (Подробнее)

Mega Releaser 2 (Количество: 1) Top Releaser 4 (Количество: 1) Mega Seeder 5 (Количество: 1)
Торрент-статистика

Создавать темы 20-Янв-2016 05:24

[Цитировать]

007: СПЕКТР / Spectre Год выпуска: 2015
Страна: Великобритания, США
Студия: Columbia Pictures, Eon Productions Ltd., Metro-Goldwyn-Mayer (MGM)
Жанр: боевик, триллер, приключения
Продолжительность: 02:28:16
Перевод: Авторский (одноголосый, закадровый) Михаил Чадов-Режиссер: Сэм Мендес / Sam Mendes
Сценарий: Джон Логан / John Logan, Нил Пёрвис / Neal Purvis, Роберт Уэйд / Robert Wade, Джез Баттеруорт / Jez Butterworth, Ян Флеминг / Ian Fleming
Продюсер: Барбара Брокколи / Barbara Broccoli, Майкл Дж. Уилсон / Michael G. Wilson, Закария Алауи / Zakaria Alaoui, Дэниэл Крэйг / Daniel Craig, Роберто Малерба / Roberto Malerba
Оператор: Хойте Ван Хойтема / Hoyte Van Hoytema
Композитор: Томас Ньюман / Thomas Newman-В ролях: Дэниэл Крэйг (James Bond), Кристоф Вальц (Blofeld), Леа Сейду (Dr. Madeleine Swann), Рэйф Файнс (M), Моника Беллуччи (Lucia Sciarra), Бен Уишоу (Q), Наоми Харрис (Eve Moneypenny), Дэйв Батиста (Mr. Hinx), Эндрю Скотт (C), Рори Киннер (Tanner), Еспер Кристенсен (Mr. White), Алессандро Кремона (Marco Sciarra)-Бюджет: $245 000 000
Сборы в США: $198 924 613
Сборы в России: $12 924 561
Сборы в мире: $875 724 613
Мировая премьера: 26 октября 2015
Премьера (РФ): 6 ноября 2015, «WDSSPR»-Описание: Новая работа Джеймса Бонда будет связана не только с защитой человечества, но и с личной информацией из его далекого прошлого. «Спектр», террористическая организация, владеющая мощным оружием, странным образом выходит на связь с Джеймсом, предлагая информацию, о которой он даже не знал. Расследование, за которое взялся серьезный агент, встало в самом начале, ведь со «Спектром» оказываются связаны самые высшие чины из его руководства.
Эта миссия, быть может, станет последней для бессменного агента Бонда - без прикрытия, без содействия ему предстоит лично столкнуться со своим туманным прошлым, и с опасными террористами.-Рейтинг:

MPAA: PG-13 - Детям до 13 лет просмотр не желателен-Формат: Matroska
Видео: 1920x806 at 23.976 fps, x264@L4.1, ~13500 kbps avg
Aудио#1: Russian: 48 kHz, DTS, 3/2 (L,C,R,l,r) + LFE ch, ~1509.00 kbps avg |Авторский, М.Чадов|
Aудио#2: Russian: 48 kHz, AC3, 3/2 (L,C,R,l,r) + LFE ch, ~640.00 kbps avg |Авторский, М.Чадов|
Аудио#3: English: 48 kHz, DTS, 3/2 (L,C,R,l,r) + LFE ch, ~1509.00 kbps avg
Субтитры: Russian, English
***Озвучено по готовым субтитрам. Во время озвучки в перевод внесены незначительные поправки. Иностранная речь озвучена.
***Видеоряд - HDMaNiAcS, сборка рипа - bog3417.-

Знаете ли Вы, что...

Роль С мог сыграть Чиветель Эджиофор.
Энг Ли, Том Хупер, Дэвид Йэтс, Дэнни Бойл, Шейн Блэк, Кристофер Нолан рассматривались на пост режиссера до того, как к этой должности согласился вернуться Сэм Мендес.
Новый автомобиль Джеймса Бонда - Aston Martin DB10.
Гари Олдман рассматривался на роль, которую в итоге получил Кристоф Вальц.
Сцена взрыва секретной базы в Марокко внесена в «Книгу рекордов Гиннеса» как самый большой постановочный взрыв в истории кино.

MI

Общее
Уникальный идентификатор : 254389260703543524977770375081208772970 (0xBF6196E7A234FC23A4E77DF81E66F96A)
Полное имя : Spectre 2015 1080p BluRay DTS x264-HDMaNiAcS.mkv
Формат : Matroska
Версия формата : Version 2
Размер файла : 17,8 Гбайт
Продолжительность : 2 ч. 28 м.
Общий поток : 17,2 Мбит/сек
Дата кодирования : UTC 2016-01-19 20:41:41
Программа кодирования : mkvmerge v7.9.0 ('Birds') 64bit
Библиотека кодирования : libebml v1.3.1 + libmatroska v1.4.2
Видео
Идентификатор : 1
Формат : AVC
Формат/Информация : Advanced Video Codec
Профиль формата : High@L4.1
Параметр CABAC формата : Да
Параметр ReFrames формата : 5 кадров
Идентификатор кодека : V_MPEG4/ISO/AVC
Продолжительность : 2 ч. 28 м.
Битрейт : 13,5 Мбит/сек
Ширина : 1920 пикселей
Высота : 806 пикселей
Соотношение сторон : 2,40:1
Режим частоты кадров : Постоянный
Частота кадров : 23,976 кадра/сек
Цветовое пространство : YUV
Субдискретизация насыщенности : 4:2:0
Битовая глубина : 8 бит
Тип развёртки : Прогрессивная
Бит/(Пиксели*Кадры) : 0.364
Размер потока : 13,6 Гбайт (77%)
Библиотека кодирования : x264 core 148 r2638kMod 7599210
Настройки программы : cabac=1 / ref=5 / deblock=1:-3:-3 / analyse=0x3:0x113 / me=umh / subme=11 / psy=1 / fade_compensate=0.00 / psy_rd=1.00:0.05 / mixed_ref=1 / me_range=24 / chroma_me=1 / trellis=2 / 8x8dct=1 / cqm=0 / deadzone=21,11 / fast_pskip=0 / chroma_qp_offset=-3 / threads=12 / lookahead_threads=2 / sliced_threads=0 / nr=0 / decimate=0 / interlaced=0 / bluray_compat=0 / constrained_intra=0 / fgo=0 / bframes=7 / b_pyramid=2 / b_adapt=2 / b_bias=0 / direct=3 / weightb=1 / open_gop=0 / weightp=2 / keyint=240 / keyint_min=23 / scenecut=40 / intra_refresh=0 / rc_lookahead=80 / rc=2pass / mbtree=1 / bitrate=13500 / ratetol=1.0 / qcomp=0.65 / qpmin=0 / qpmax=69 / qpstep=4 / cplxblur=20.0 / qblur=0.5 / vbv_maxrate=62500 / vbv_bufsize=78125 / nal_hrd=none / filler=0 / ip_ratio=1.25 / aq=1:0.80
Язык : English
Default : Да
Forced : Нет
Аудио #1
Идентификатор : 2
Формат : DTS
Формат/Информация : Digital Theater Systems
Режим : 16
Параметр Endianness формата : Big
Идентификатор кодека : A_DTS
Продолжительность : 2 ч. 28 м.
Вид битрейта : Постоянный
Битрейт : 1510 Кбит/сек
Каналы : 6 каналов
Расположение каналов : Front: L C R, Side: L R, LFE
Частота : 48,0 КГц
Битовая глубина : 24 бит
Метод сжатия : С потерями
Размер потока : 1,56 Гбайт (9%)
Язык : Russian
Default : Да
Forced : Нет
Аудио #2
Идентификатор : 3
Формат : AC-3
Формат/Информация : Audio Coding 3
Расширение режима : CM (complete main)
Параметр Endianness формата : Big
Идентификатор кодека : A_AC3
Продолжительность : 2 ч. 28 м.
Вид битрейта : Постоянный
Битрейт : 640 Кбит/сек
Каналы : 6 каналов
Расположение каналов : Front: L C R, Side: L R, LFE
Частота : 48,0 КГц
Метод сжатия : С потерями
Размер потока : 678 Мбайт (4%)
Язык : Russian
Default : Нет
Forced : Нет
Аудио #3
Идентификатор : 4
Формат : DTS
Формат/Информация : Digital Theater Systems
Режим : 16
Параметр Endianness формата : Big
Идентификатор кодека : A_DTS
Продолжительность : 2 ч. 28 м.
Вид битрейта : Постоянный
Битрейт : 1509 Кбит/сек
Каналы : 6 каналов
Расположение каналов : Front: L C R, Side: L R, LFE
Частота : 48,0 КГц
Битовая глубина : 24 бит
Метод сжатия : С потерями
Размер потока : 1,56 Гбайт (9%)
Язык : English
Default : Нет
Forced : Нет
Текст #1
Идентификатор : 5
Формат : UTF-8
Идентификатор кодека : S_TEXT/UTF8
Идентификатор кодека/Информация : UTF-8 Plain Text
Язык : English
Default : Нет
Forced : Нет
Текст #2
Идентификатор : 6
Формат : UTF-8
Идентификатор кодека : S_TEXT/UTF8
Идентификатор кодека/Информация : UTF-8 Plain Text
Заголовок : Форс
Язык : Russian
Default : Да
Forced : Да
Текст #3
Идентификатор : 7
Формат : UTF-8
Идентификатор кодека : S_TEXT/UTF8
Идентификатор кодека/Информация : UTF-8 Plain Text
Язык : Russian
Default : Нет
Forced : Нет
Текст #4
Идентификатор : 8
Формат : UTF-8
Идентификатор кодека : S_TEXT/UTF8
Идентификатор кодека/Информация : UTF-8 Plain Text
Заголовок : English-Forced
Язык : English
Default : Нет
Forced : Нет
Меню
00:00:00.000 : en:Chapter 01
00:06:09.118 : en:Chapter 03
00:13:04.784 : en:Chapter 05
00:18:58.470 : en:Chapter 07
00:24:46.776 : en:Chapter 09
00:28:04.057 : en:Chapter 11
00:32:15.558 : en:Chapter 13
00:36:58.591 : en:Chapter 15
00:41:56.639 : en:Chapter 17
00:46:13.145 : en:Chapter 19
00:50:51.923 : en:Chapter 21
00:53:43.220 : en:Chapter 23
01:00:21.367 : en:Chapter 25
01:06:48.212 : en:Chapter 27
01:10:58.963 : en:Chapter 29
01:15:14.092 : en:Chapter 31
01:18:55.647 : en:Chapter 33
01:26:11.040 : en:Chapter 35
01:29:39.999 : en:Chapter 37
01:36:43.547 : en:Chapter 39
01:41:44.389 : en:Chapter 41
01:49:06.414 : en:Chapter 43
01:55:52.820 : en:Chapter 45
01:59:39.213 : en:Chapter 47
02:04:19.743 : en:Chapter 49
02:09:28.510 : en:Chapter 51
02:14:05.662 : en:Chapter 53
02:19:42.374 : en:Chapter 55
02:28:06.627 : en:Chapter 56

Скриншоты

-
[Профиль] [ЛС]
Кто просматривает тему:

Показать сообщения:    

Текущее время: Сегодня 04:24

Часовой пояс: GMT



Вы не можете начинать темы
Вы не можете отвечать на сообщения
Вы не можете редактировать свои сообщения
Вы не можете удалять свои сообщения
Вы не можете голосовать в опросах
Вы не можете прикреплять файлы к сообщениям
Вы не можете скачивать файлы