007: Спектр / Spectre (2015) WEB-DLRip 720p | Звук с CAMRip

 
Автор Сообщение

BOSS ®

Пол:

Стаж: 2 года 1 месяц

Сообщений: 3712

Откуда: ODESSA



Награды: 20 (Подробнее)

Mega Seeder 3 (Количество: 1) Mega Releaser 2 (Количество: 1) Top Keeper 1 (Количество: 1)
Торрент-статистика

Создавать темы 17-Янв-2016 08:13

[Цитировать]

Название: 007: СПЕКТР
Оригинальное название: Spectre
Год выхода: 2015
Производство: Великобритания, США B24, Columbia Pictures, Danjaq, Eon Productions Ltd., Metro-Goldwyn-Mayer (MGM), Sony
Жанр: Боевик, Триллер, Приключения
Режиссер: Сэм Мендес
Актеры: Дэниэл Крэйг, Кристоф Вальц, Леа Сейду, Рэйф Файнс, Моника Беллуччи, Бен Уишоу, Наоми Харрис, Дэйв Батиста, Эндрю Скотт, Рори Киннер
Описание:
Зашифрованное послание из неизвестного источника выводит Бонда на след зловещей глобальной организации под кодовым названием СПЕКТР, в то время как М пытается спасти секретную разведывательную службу от ликвидации.

Продолжительность: 02:28:07
Качество видео: WEB-DLRip 720p
Перевод: Дублированный (звук с CAMRip)
Вид субтитров: вшитые отключаемые
Язык субтитров: Английский , отдельно русские
Видео: AVC, 1280x536 (2.40:1), 4829 kbps
Аудио 1: AC3, 2 ch, 128 kbps | Русский
Аудио 2: DTS, 5.1 ch, 1509kbps | English
Сэмпл

MI

Общее
Уникальный идентификатор : 184417982777166461575158590590851423804 (0x8ABD9C8D527242F3B7E2127246271E3C)
Полное имя : C:Downloads�07.Спектр_Spectre.2015.BDRip.720p.mkv
Формат : Matroska
Версия формата : Version 2
Размер файла : 6,69 Гбайт
Продолжительность : 2 ч. 28 м.
Общий поток : 6466 Кбит/сек
Название фильма : 007.Спектр_Spectre.2015.BDRip.720p
Дата кодирования : UTC 2016-01-16 19:18:52
Программа кодирования : mkvmerge v7.7.0 ('Six Voices') 64bit built on Feb 28 2015 23:39:33
Библиотека кодирования : libebml v1.3.1 + libmatroska v1.4.2
DURATION : 01:16:33.798000000
NUMBER_OF_FRAMES : 39
NUMBER_OF_BYTES : 1023
_STATISTICS_WRITING_APP : mkvmerge v8.3.0 ('Over the Horizon') 64bit
_STATISTICS_WRITING_DATE_UTC : 2016-01-16 18:01:00
_STATISTICS_TAGS : BPS DURATION NUMBER_OF_FRAMES NUMBER_OF_BYTES
Видео
Идентификатор : 1
Формат : AVC
Формат/Информация : Advanced Video Codec
Профиль формата : High@L4.1
Параметр CABAC формата : Да
Параметр ReFrames формата : 5 кадров
Идентификатор кодека : V_MPEG4/ISO/AVC
Продолжительность : 2 ч. 28 м.
Битрейт : 4829 Кбит/сек
Ширина : 1280 пикселей
Высота : 536 пикселей
Соотношение сторон : 2,40:1
Режим частоты кадров : Постоянный
Частота кадров : 23,976 кадра/сек
Цветовое пространство : YUV
Субдискретизация насыщенности : 4:2:0
Битовая глубина : 8 бит
Тип развёртки : Прогрессивная
Бит/(Пиксели*Кадры) : 0.294
Размер потока : 4,86 Гбайт (73%)
Заголовок : 007.Спектр_Spectre.2015.BDRip.720p
Библиотека кодирования : x264 core 148 r2638 7599210
Настройки программы : cabac=1 / ref=5 / deblock=1:0:0 / analyse=0x3:0x133 / me=umh / subme=7 / psy=1 / psy_rd=1.00:0.00 / mixed_ref=1 / me_range=16 / chroma_me=1 / trellis=1 / 8x8dct=1 / cqm=0 / deadzone=21,11 / fast_pskip=0 / chroma_qp_offset=-2 / threads=12 / lookahead_threads=2 / sliced_threads=0 / nr=0 / decimate=1 / interlaced=0 / bluray_compat=0 / constrained_intra=0 / bframes=3 / b_pyramid=2 / b_adapt=1 / b_bias=0 / direct=1 / weightb=1 / open_gop=0 / weightp=2 / keyint=250 / keyint_min=23 / scenecut=40 / intra_refresh=0 / rc_lookahead=40 / rc=2pass / mbtree=1 / bitrate=4829 / ratetol=1.0 / qcomp=0.60 / qpmin=0 / qpmax=69 / qpstep=4 / cplxblur=20.0 / qblur=0.5 / ip_ratio=1.40 / aq=1:1.00
Язык : English
Default : Да
Forced : Нет
DURATION : 02:28:06.851000000
NUMBER_OF_FRAMES : 213071
NUMBER_OF_BYTES : 5362207143
_STATISTICS_WRITING_APP : mkvmerge v8.3.0 ('Over the Horizon') 64bit
_STATISTICS_WRITING_DATE_UTC : 2016-01-16 18:01:00
_STATISTICS_TAGS : BPS DURATION NUMBER_OF_FRAMES NUMBER_OF_BYTES
Аудио #1
Идентификатор : 2
Формат : AC-3
Формат/Информация : Audio Coding 3
Расширение режима : CM (complete main)
Параметр Endianness формата : Big
Идентификатор кодека : A_AC3
Продолжительность : 2 ч. 28 м.
Вид битрейта : Постоянный
Битрейт : 128 Кбит/сек
Каналы : 2 канала
Расположение каналов : Front: L R
Частота : 48,0 КГц
Метод сжатия : С потерями
Размер потока : 136 Мбайт (2%)
Заголовок : Дубляж (звук с TS)
Язык : Russian
Default : Да
Forced : Нет
Аудио #2
Идентификатор : 3
Формат : DTS
Формат/Информация : Digital Theater Systems
Режим : 16
Параметр Endianness формата : Big
Идентификатор кодека : A_DTS
Продолжительность : 2 ч. 28 м.
Вид битрейта : Постоянный
Битрейт : 1509 Кбит/сек
Каналы : 6 каналов
Расположение каналов : Front: L C R, Side: L R, LFE
Частота : 48,0 КГц
Битовая глубина : 24 бит
Метод сжатия : С потерями
Размер потока : 1,56 Гбайт (23%)
Язык : English
Default : Нет
Forced : Нет
Текст
Идентификатор : 4
Формат : UTF-8
Идентификатор кодека : S_TEXT/UTF8
Идентификатор кодека/Информация : UTF-8 Plain Text
Заголовок : English-Forced
Язык : English
Default : Да
Forced : Да
Меню
00:00:00.000 : en:00:00:00.000
00:06:09.119 : en:00:06:09.119
00:13:04.784 : en:00:13:04.784
00:18:58.471 : en:00:18:58.471
00:24:46.777 : en:00:24:46.777
00:28:04.057 : en:00:28:04.057
00:32:15.559 : en:00:32:15.559
00:36:58.591 : en:00:36:58.591
00:41:56.639 : en:00:41:56.639
00:46:13.145 : en:00:46:13.145
00:50:51.924 : en:00:50:51.924
00:53:43.220 : en:00:53:43.220
01:00:21.368 : en:01:00:21.368
01:06:48.213 : en:01:06:48.213
01:10:58.963 : en:01:10:58.963
01:15:14.093 : en:01:15:14.093
01:18:55.648 : en:01:18:55.648
01:26:11.041 : en:01:26:11.041
01:29:40.000 : en:01:29:40.000
01:36:43.548 : en:01:36:43.548
01:41:44.390 : en:01:41:44.390
01:49:06.415 : en:01:49:06.415
01:55:52.821 : en:01:55:52.821
01:59:39.214 : en:01:59:39.214
02:04:19.744 : en:02:04:19.744
02:09:28.511 : en:02:09:28.511
02:14:05.663 : en:02:14:05.663
02:19:42.374 : en:02:19:42.374

Скриншоты

[Профиль] [ЛС]
Кто просматривает тему:

Показать сообщения:    

Текущее время: Сегодня 05:00

Часовой пояс: GMT



Вы не можете начинать темы
Вы не можете отвечать на сообщения
Вы не можете редактировать свои сообщения
Вы не можете удалять свои сообщения
Вы не можете голосовать в опросах
Вы не можете прикреплять файлы к сообщениям
Вы не можете скачивать файлы