007: Казино Рояль / Casino Royale (Мартин Кэмпбелл / Martin Campbell) [2006, Германия, США, Великобритания, Чехия, боевик, триллер, приключения, BDRip] Dub [Полная версия / UnCut]

 
Автор Сообщение

painkiller ®

Стаж: 2 года 3 месяца

Сообщений: 582



Награды: Нет

Торрент-статистика

Создавать темы 14-Авг-2014 09:10

[Цитировать]

007: Казино Рояль / Casino Royale / Полная версия / UnCut
«Everyone has a past. Every legend has a beginning. On November 17th, discover how James...became Bond»
- Страна: Германия, США, Великобритания, Чехия
Жанр: боевик, триллер, приключения
Год выпуска: 2006
Продолжительность: 02:24:33
Перевод: Профессиональный (дублированный)
Cубтитры: нет
Оригинальная аудиодорожка: нет-Режиссер:
Мартин Кэмпбелл / Martin Campbell-В ролях:
Дэниэл Крэйг (James Bond), Ева Грин (Vesper Lynd), Мадс Миккельсен (Le Chiffre), Джуди Денч (M), Джеффри Райт (Felix Leiter), Джанкарло Джаннини (Mathis), Катерина Мурино (Solange), Симон Абкарян (Alex Dimitrios), Исаак Де Банколе (Steven Obanno), Еспер Кристенсен (Mr. White), Ивана Миличевич (Valenka), Тобиаш Мензес (Villiers).-Описание:
Самый известный шпион в мире возвращается к зрителю - и к началу своей бурной деятельности на службе Ее Величества! Первая же миссия в качестве агента 007 становится его величайшим испытанием: ему выпадает сразиться с международной террористической организацией, опутавшей своей сетью всю планету. Используя богатый шпионский арсенал - от верного пистолета до навороченного спортивного авто - Джеймс Бонд вступает в поединок с ключевой фигурой сил зла, финансовым гением преступного мира Ле Шиффром. Но пули хороши лишь для приспешников Ле Шиффра: генеральное сражение против негодяя можно выиграть лишь силой ума - и не на поле боя, а на зеленом сукне роскошного казино «Рояль»...-
MPAA: | PG-13 - Детям до 13 лет просмотр не желателен-Качество видео: BDRip | исх. [Blu-ray_disc_1080p_EUR]
Формат видео: AVI | → //SAMPLE//
Видео: 720x304 (2.37:1), 23.976 fps, XviD build 65 ~1248 kbps avg, 0.24 bit/pixel
Аудио: 48.0 kHz, AC3 Dolby Digital, 2/0 (L,R) ch, ~192.00 kbps avg | DUB
Размер: 1499.06 Mb (1/3 DVD-R)
-

MediaInfo

Общее
Полное имя : A:\Фильмы\Kazino.Rojal.2006.BDRip.XviD.1.46Gb.AC3.avi
Формат : AVI
Формат/Информация : Audio Video Interleave
Размер файла : 1,46 Гбайт
Продолжительность : 2 ч. 24 м.
Общий поток : 1450 Кбит/сек
Программа кодирования : VirtualDubMod 1.5.10.3 | www.virtualdub-fr.org || (build 2550/release)
Библиотека кодирования : VirtualDubMod build 2550/release
Видео
Идентификатор : 0
Формат : MPEG-4 Visual
Профиль формата : Advanced Simple@L5
Параметр BVOP формата : 1
Параметр QPel формата : Нет
Параметр GMC формата : Без точки перехода
Параметр матрицы формата : Выборочная
Идентификатор кодека : XVID
Идентификатор кодека/Подсказка : XviD
Продолжительность : 2 ч. 24 м.
Битрейт : 1248 Кбит/сек
Ширина : 720 пикселей
Высота : 304 пикселя
Соотношение сторон : 2.37:1
Частота кадров : 23,976 кадра/сек
Цветовое пространство : YUV
Субдискретизация насыщенности : 4:2:0
Битовая глубина : 8 бит
Тип развёртки : Прогрессивная
Метод сжатия : С потерями
Бит/(Пиксели*Кадры) : 0.238
Размер потока : 1,26 Гбайт (86%)
Библиотека кодирования : XviD 65
Аудио
Идентификатор : 1
Формат : AC-3
Формат/Информация : Audio Coding 3
Расширение режима : CM (complete main)
Параметр Endianness формата : Big
Идентификатор кодека : 2000
Продолжительность : 2 ч. 24 м.
Вид битрейта : Постоянный
Битрейт : 192 Кбит/сек
Каналы : 2 канала
Расположение каналов : Front: L R
Частота : 48,0 КГц
Битовая глубина : 16 бит
Метод сжатия : С потерями
Размер потока : 199 Мбайт (13%)
Выравнивание : Разделение по промежуткам
Продолжительность промежутка : 42 мс. (1,00 видеокадр)
Время предзагрузки промежутка : 500 мс.

Скриншот c названием фильма

Скриншоты

[Профиль] [ЛС]

Создавать темы 06-Авг-2015 23:17 (спустя 11 месяцев 23 дня)

Топик был перенесен из форума Фильмы до 2014 года в форум Фильмы до 2012 года
sergej644
 
Кто просматривает тему:

Показать сообщения:    

Текущее время: Сегодня 02:11

Часовой пояс: GMT



Вы не можете начинать темы
Вы не можете отвечать на сообщения
Вы не можете редактировать свои сообщения
Вы не можете удалять свои сообщения
Вы не можете голосовать в опросах
Вы не можете прикреплять файлы к сообщениям
Вы не можете скачивать файлы