Я, Эрл и умирающая девушка / Me and Earl and the Dying Girl (2015) BDRip-AVC | iTunes

 
Автор Сообщение

РАЛЬФ ®

Стаж: 1 год 5 месяцев

Сообщений: 8



Награды: Нет

Торрент-статистика

Создавать темы 05-Янв-2016 07:09

[Цитировать]

Я, Эрл и умирающая девушка
Me and Earl and the Dying Girl
«A little friendship never killed anyone»

Страна: США
Жанр: драма, комедия
Год выпуска: 2015
Продолжительность: 01:45:12
Перевод: Профессиональный (многоголосый, закадровый) [Лицензия iTunes]
Cубтитры: Русские (форсированные, полные), украинские (полные), английские (полные, SDH)
Оригинальная аудиодорожка: Английский
Режиссер: Альфонсо Гомез-Рейон / Alfonso Gomez-Rejon
В ролях: Томас Манн, АрДжей Сайлер, Оливия Кук, Ник Офферман, Конни Бриттон, Молли Шеннон, Джон Бернтал, Мэтт Беннетт, К.С. Хьюз, Масам Холден, Бобби Дж. Томпсон, Гэвин Дитц
Описание:
Грег - подросток, который увлекается постановкой и снимает любительские фильмы. Он посещает старшую школу и старается лишний раз не наживать себе врагов. Большого количества друзей у него нет, есть только коллега Эрл, разделяющий его интересы, с которым они смотрят и переснимают классические киноленты. Волей случая, Грег начинает тесно общаться с одноклассницей, тихой еврейской девочкой Рейчел, у которой обнаружена лейкемия. И в процессе общения случается так, что эти двое становятся незаменимыми друг для друга... Грег пытается оказать поддержку подруге, показывая свои фильмы.

Автор рипа: Stalker oK
Сэмпл
Качество видео: BDRip-AVC [BHD / FraMeSToR / Blu-ray Remux / 1080p]
Формат видео: MKV
Видео кодек: AVC
Аудио кодек: AC3
Видео: 2072 Кбит/сек, 1152*480 (2,40:1), в 23,976 (24000/1001) кадра/сек, AVC
Аудио #1: Russian, 384 Кбит/сек, 48,0 КГц, 6 каналов, AC-3
Аудио #2: English, 448 Кбит/сек, 48,0 КГц, 6 каналов, AC-3
Навигация по главам: есть

MediaInfo

Общее
Уникальный идентификатор : 172636086691465342918731273620465334258 (0x81E08039F09BE422AE44A85E90CB37F2)
Полное имя : M:RipsMe and Earl and the Dying GirlMe.and.Earl.and.the.Dying.Girl.2015.BDRip-AVC.MVO.2.18Gb.stalkerok.new-team.mkv
Формат : Matroska
Версия формата : Version 4 / Version 2
Размер файла : 2,14 Гбайт
Продолжительность : 1 ч. 45 м.
Общий поток : 2907 Кбит/сек
Название фильма : Me and Earl and the Dying Girl (2015) (New-Team) (Rip by Stalker oK)
Дата кодирования : UTC 2016-01-04 17:38:57
Программа кодирования : mkvmerge v8.6.1 ('Flying') 64bit
Библиотека кодирования : libebml v1.3.3 + libmatroska v1.4.4
Видео
Идентификатор : 1
Формат : AVC
Формат/Информация : Advanced Video Codec
Профиль формата : High@L4.1
Параметр CABAC формата : Да
Параметр ReFrames формата : 14 кадров
Идентификатор кодека : V_MPEG4/ISO/AVC
Продолжительность : 1 ч. 45 м.
Битрейт : 2072 Кбит/сек
Ширина : 1152 пикселя
Высота : 480 пикселей
Соотношение сторон : 2,40:1
Режим частоты кадров : Постоянный
Частота кадров : 23,976 (24000/1001) кадра/сек
Цветовое пространство : YUV
Субдискретизация насыщенности : 4:2:0
Битовая глубина : 8 бит
Тип развёртки : Прогрессивная
Бит/(Пиксели*Кадры) : 0.156
Размер потока : 1,52 Гбайт (71%)
Заголовок : Me and Earl and the Dying Girl (2015) (New-Team) (Rip by Stalker oK)
Библиотека кодирования : x264 core 148 r2638kMod 7599210
Настройки программы : cabac=1 / ref=14 / deblock=1:-3:-3 / analyse=0x3:0x133 / me=umh / subme=11 / psy=1 / fade_compensate=0.00 / psy_rd=1.00:0.10 / mixed_ref=1 / me_range=48 / chroma_me=1 / trellis=2 / 8x8dct=1 / cqm=0 / deadzone=21,11 / fast_pskip=0 / chroma_qp_offset=-3 / threads=12 / lookahead_threads=3 / sliced_threads=0 / nr=0 / decimate=0 / interlaced=0 / bluray_compat=0 / constrained_intra=0 / fgo=0 / bframes=15 / b_pyramid=2 / b_adapt=2 / b_bias=0 / direct=3 / weightb=1 / open_gop=0 / weightp=2 / keyint=240 / keyint_min=23 / scenecut=40 / intra_refresh=0 / rc_lookahead=60 / rc=2pass / mbtree=0 / bitrate=2072 / ratetol=1.0 / qcomp=0.70 / qpmin=0 / qpmax=69 / qpstep=4 / cplxblur=20.0 / qblur=0.5 / vbv_maxrate=50000 / vbv_bufsize=62500 / nal_hrd=none / filler=0 / ip_ratio=1.40 / pb_ratio=1.30 / aq=3:0.80
Default : Да
Forced : Нет
Аудио #1
Идентификатор : 2
Формат : AC-3
Формат/Информация : Audio Coding 3
Расширение режима : CM (complete main)
Параметр Endianness формата : Big
Идентификатор кодека : A_AC3
Продолжительность : 1 ч. 45 м.
Вид битрейта : Постоянный
Битрейт : 384 Кбит/сек
Каналы : 6 каналов
Расположение каналов : Front: L C R, Side: L R, LFE
Частота : 48,0 КГц
Частота кадров : 31,250 кадров/сек (1536 spf)
Метод сжатия : С потерями
Размер потока : 289 Мбайт (13%)
Заголовок : iTunes
Язык : Russian
Default : Да
Forced : Нет
Аудио #2
Идентификатор : 3
Формат : AC-3
Формат/Информация : Audio Coding 3
Расширение режима : CM (complete main)
Параметр Endianness формата : Big
Идентификатор кодека : A_AC3
Продолжительность : 1 ч. 45 м.
Вид битрейта : Постоянный
Битрейт : 448 Кбит/сек
Каналы : 6 каналов
Расположение каналов : Front: L C R, Side: L R, LFE
Частота : 48,0 КГц
Частота кадров : 31,250 кадров/сек (1536 spf)
Метод сжатия : С потерями
Размер потока : 337 Мбайт (15%)
Язык : English
Default : Нет
Forced : Нет
Текст #1
Идентификатор : 4
Формат : UTF-8
Идентификатор кодека : S_TEXT/UTF8
Идентификатор кодека/Информация : UTF-8 Plain Text
Продолжительность : 12 м.
Битрейт : 1 бит/сек
Count of elements : 2
Размер потока : 145 байт (0%)
Заголовок : forced iTunes
Язык : Russian
Default : Да
Forced : Нет
Текст #2
Идентификатор : 5
Формат : UTF-8
Идентификатор кодека : S_TEXT/UTF8
Идентификатор кодека/Информация : UTF-8 Plain Text
Продолжительность : 1 ч. 38 м.
Битрейт : 5 бит/сек
Count of elements : 57
Размер потока : 3,74 Кбайт (0%)
Заголовок : forced (Степанова Анна, ONG, ред. Helen)
Язык : Russian
Default : Нет
Forced : Нет
Текст #3
Идентификатор : 6
Формат : UTF-8
Идентификатор кодека : S_TEXT/UTF8
Идентификатор кодека/Информация : UTF-8 Plain Text
Продолжительность : 1 ч. 44 м.
Битрейт : 107 бит/сек
Count of elements : 1433
Размер потока : 82,0 Кбайт (0%)
Заголовок : full iTunes
Язык : Russian
Default : Нет
Forced : Нет
Текст #4
Идентификатор : 7
Формат : UTF-8
Идентификатор кодека : S_TEXT/UTF8
Идентификатор кодека/Информация : UTF-8 Plain Text
Продолжительность : 1 ч. 39 м.
Битрейт : 120 бит/сек
Count of elements : 1436
Размер потока : 87,1 Кбайт (0%)
Заголовок : full iTunes
Язык : Ukrainian
Default : Нет
Forced : Нет
Текст #5
Идентификатор : 8
Формат : UTF-8
Идентификатор кодека : S_TEXT/UTF8
Идентификатор кодека/Информация : UTF-8 Plain Text
Продолжительность : 1 ч. 38 м.
Битрейт : 73 бит/сек
Count of elements : 1382
Размер потока : 52,8 Кбайт (0%)
Заголовок : full iTunes
Язык : English
Default : Нет
Forced : Нет
Текст #6
Идентификатор : 9
Формат : UTF-8
Идентификатор кодека : S_TEXT/UTF8
Идентификатор кодека/Информация : UTF-8 Plain Text
Продолжительность : 1 ч. 39 м.
Битрейт : 126 бит/сек
Count of elements : 1699
Размер потока : 91,5 Кбайт (0%)
Заголовок : full (Степанова Анна)
Язык : Russian
Default : Нет
Forced : Нет
Текст #7
Идентификатор : 10
Формат : UTF-8
Идентификатор кодека : S_TEXT/UTF8
Идентификатор кодека/Информация : UTF-8 Plain Text
Продолжительность : 1 ч. 38 м.
Битрейт : 122 бит/сек
Count of elements : 1685
Размер потока : 88,0 Кбайт (0%)
Заголовок : full (Степанова Анна, ONG, ред. Helen)
Язык : Russian
Default : Нет
Forced : Нет
Текст #8
Идентификатор : 11
Формат : ASS
Идентификатор кодека : S_TEXT/ASS
Идентификатор кодека/Информация : Advanced Sub Station Alpha
Продолжительность : 1 ч. 39 м.
Битрейт : 184 бит/сек
Count of elements : 1765
Метод сжатия : Без потерь
Размер потока : 134 Кбайт (0%)
Заголовок : full (Павел Жуков aka Bugman)
Язык : Russian
Default : Нет
Forced : Нет
Текст #9
Идентификатор : 12
Формат : UTF-8
Идентификатор кодека : S_TEXT/UTF8
Идентификатор кодека/Информация : UTF-8 Plain Text
Продолжительность : 1 ч. 39 м.
Битрейт : 77 бит/сек
Count of elements : 1757
Размер потока : 56,4 Кбайт (0%)
Заголовок : full v1
Язык : English
Default : Нет
Forced : Нет
Текст #10
Идентификатор : 13
Формат : UTF-8
Идентификатор кодека : S_TEXT/UTF8
Идентификатор кодека/Информация : UTF-8 Plain Text
Продолжительность : 1 ч. 38 м.
Битрейт : 74 бит/сек
Count of elements : 1751
Размер потока : 53,4 Кбайт (0%)
Заголовок : full v2
Язык : English
Default : Нет
Forced : Нет
Текст #11
Идентификатор : 14
Формат : UTF-8
Идентификатор кодека : S_TEXT/UTF8
Идентификатор кодека/Информация : UTF-8 Plain Text
Продолжительность : 1 ч. 38 м.
Битрейт : 82 бит/сек
Count of elements : 1845
Размер потока : 59,3 Кбайт (0%)
Заголовок : SDH v1
Язык : English
Default : Нет
Forced : Нет
Текст #12
Идентификатор : 15
Формат : UTF-8
Идентификатор кодека : S_TEXT/UTF8
Идентификатор кодека/Информация : UTF-8 Plain Text
Продолжительность : 1 ч. 38 м.
Битрейт : 78 бит/сек
Count of elements : 1842
Размер потока : 56,4 Кбайт (0%)
Заголовок : SDH v2
Язык : English
Default : Нет
Forced : Нет
Меню
00:00:00.000 : en:Chapter 1
00:02:26.355 : en:Chapter 2
00:05:53.270 : en:Chapter 3
00:10:20.495 : en:Chapter 4
00:13:29.892 : en:Chapter 5
00:16:01.294 : en:Chapter 6
00:20:07.248 : en:Chapter 7
00:24:04.985 : en:Chapter 8
00:27:11.421 : en:Chapter 9
00:31:05.822 : en:Chapter 10
00:34:25.230 : en:Chapter 11
00:40:26.799 : en:Chapter 12
00:43:33.611 : en:Chapter 13
00:45:32.688 : en:Chapter 14
00:49:24.670 : en:Chapter 15
00:53:10.646 : en:Chapter 16
00:56:38.020 : en:Chapter 17
00:59:28.774 : en:Chapter 18
01:07:09.817 : en:Chapter 19
01:11:29.202 : en:Chapter 20
01:14:16.285 : en:Chapter 21
01:17:58.549 : en:Chapter 22
01:20:43.922 : en:Chapter 23
01:23:17.451 : en:Chapter 24
01:30:29.841 : en:Chapter 25
01:32:48.897 : en:Chapter 26
01:38:36.077 : en:Chapter 27
01:40:10.004 : en:Chapter 28
01:44:21.505 : en:Chapter 29

[Профиль] [ЛС]
Кто просматривает тему:

Форум Тема Автор Размер
Фильмы 2015 года Я, Эрл и умирающая девушка / Me and Earl and the Dying Girl (2015) BRRip BOSS 1.4 GB
Фильмы 2015 года Я, Эрл и умирающая девушка / Me and Earl and the Dying Girl (2015) HDRip | iTunes BOSS 2.05 GB
Фильмы 2015 года Я, Эрл и умирающая девушка / Me And Earl And The Dying Girl (Альфонсо Гомез-Рейон / Alfonso Gomez-Rejon) [2015, США, драма, комедия, BDRip] Sub (Rus, Eng) TorrentFilm 1.33 GB
Фильмы 2015 года Я, Эрл и умирающая девушка / Me and Earl and the Dying Girl (Альфонсо Гомез-Рейон / Alfonso Gomez-Rejon) [2015, США, драма, комедия, HDRip] DVO (Sunny Films) TorrentFilm 1.47 GB
Фильмы 2015 года Я, Эрл и умирающая девушка / Me and Earl and the Dying Girl (Альфонсо Гомез-Рейон / Alfonso Gomez-Rejon) [2015, США, драма, комедия, HDRip] MVO + Sub Rus TorrentFilm 1.44 GB
R.G.TorrentFilm Video Я, Эрл и умирающая девушка / Me and Earl and the Dying Girl (Альфонсо Гомез-Рейон / Alfonso Gomez-Rejon) [2015, США, Драма, комедия, экранизация, HDRip] MVO (Tunes) + Sub (Rus) AleksSin 1.45 GB
Фильмы 2015 года Я, Эрл и умирающая девушка / Me and Earl and the Dying Girl (Альфонсо Гомез-Рейон / Alfonso Gomez-Rejon) [2015, США, комедия, драма, HDRip] DVO (STEPonee) TorrentFilm 1.47 GB
Показать сообщения:    

Текущее время: Сегодня 06:08

Часовой пояс: GMT



Вы не можете начинать темы
Вы не можете отвечать на сообщения
Вы не можете редактировать свои сообщения
Вы не можете удалять свои сообщения
Вы не можете голосовать в опросах
Вы не можете прикреплять файлы к сообщениям
Вы не можете скачивать файлы