Я, Эрл и умирающая девушка / Me and Earl and the Dying Girl (Альфонсо Гомез-Рейон / Alfonso Gomez-Rejon) [2015, США, Драма, комедия, экранизация, HDRip] MVO (Tunes) + Sub (Rus)

 
Автор Сообщение

AleksSin ®

Пол:

Стаж: 6 лет

Сообщений: 218



Награды: 4 (Подробнее)

Mega Seeder 3 (Количество: 1) Mega Seeder 4 (Количество: 1) Mega Seeder 2 (Количество: 1)
Торрент-статистика

Создавать темы 04-Янв-2016 13:29

[Цитировать]

Я, Эрл и умирающая девушка / Me and Earl and the Dying Girl«A little friendship never killed anyone» Страна: США
Жанр: Драма, комедия, экранизация
Год выпуска: 2015
Продолжительность: 01:45:12
Перевод: Профессиональный (многоголосый закадровый) Tunes
Cубтитры: есть, русские (вшитые) - на надписи и текст
Режиссер: Альфонсо Гомез-Рейон / Alfonso Gomez-Rejon
В ролях: Томас Манн, АрДжей Сайлер, Оливия Кук, Ник Офферман, Конни Бриттон, Молли Шеннон, Джон Бернтал, Мэтт Беннетт, Масам Холден
Описание: Грег — подросток, который увлекается постановкой и снимает любительские фильмы. Он посещает старшую школу и старается лишний раз не наживать себе врагов. Большого количества друзей у него нет, есть только коллега Эрл, разделяющий его интересы, с которым они смотрят и переснимают классические киноленты. Волей случая, Грег начинает тесно общаться с одноклассницей, тихой еврейской девочкой Рейчел, у которой обнаружена лейкемия. И в процессе общения случается так, что эти двое становятся незаменимыми друг для друга… Грег пытается оказать поддержку подруге, показывая свои фильмы.

Сэмпл: https://www.sendspace.com/file/snxu1p
Качество видео: HDRip (Исх. BDRip 720p)
Формат видео: AVI
Видео: 720x304 (2.37:1), 23.976 fps, XviD build 73 ~1583 kbps avg, 0.30 bit/pixel
Аудио: 48 kHz, AC3 Dolby Digital, 3/2 (L,C,R,l,r) + LFE ch, ~384 kbps
Формат субтитров: hardsub (неотключаемые)

Отчёт MediaInfo

Общее
Полное имя : S:\Фильмы\Я, Эрл и умирающая девушка. 2015. HDRip (AleksSin).avi
Формат : AVI
Формат/Информация : Audio Video Interleave
Размер файла : 1,45 Гбайт
Продолжительность : 1 ч. 45 м.
Общий поток : 1976 Кбит/сек
Программа кодирования : VirtualDubMod 1.5.10.3 | www.virtualdub-fr.org || (build 2550/release)
Библиотека кодирования : VirtualDubMod build 2550/release
Видео
Идентификатор : 0
Формат : MPEG-4 Visual
Профиль формата : Advanced Simple@L5
Параметр BVOP формата : 1
Параметр QPel формата : Нет
Параметр GMC формата : Без точки перехода
Параметр матрицы формата : Выборочная
Идентификатор кодека : XVID
Идентификатор кодека/Подсказка : XviD
Продолжительность : 1 ч. 45 м.
Битрейт : 1583 Кбит/сек
Ширина : 720 пикселей
Высота : 304 пикселя
Соотношение сторон : 2,35:1
Частота кадров : 23,976 кадра/сек
Цветовое пространство : YUV
Субдискретизация насыщенности : 4:2:0
Битовая глубина : 8 бит
Тип развёртки : Прогрессивная
Метод сжатия : С потерями
Бит/(Пиксели*Кадры) : 0.302
Размер потока : 1,16 Гбайт (80%)
Библиотека кодирования : XviD 73
Аудио
Идентификатор : 1
Формат : AC-3
Формат/Информация : Audio Coding 3
Расширение режима : CM (complete main)
Параметр Endianness формата : Big
Идентификатор кодека : 2000
Продолжительность : 1 ч. 45 м.
Вид битрейта : Постоянный
Битрейт : 384 Кбит/сек
Каналы : 6 каналов
Расположение каналов : Front: L C R, Side: L R, LFE
Частота : 48,0 КГц
Битовая глубина : 16 бит
Метод сжатия : С потерями
Размер потока : 289 Мбайт (19%)
Выравнивание : Разделение по промежуткам
Продолжительность промежутка : 42 мс. (1,00 видеокадр)
Время предзагрузки промежутка : 500 мс.

Скриншот c названием фильма

Скриншоты

[Профиль] [ЛС]
Кто просматривает тему:

Форум Тема Автор Размер
Фильмы 2015 года Я, Эрл и умирающая девушка / Me and Earl and the Dying Girl (2015) BDRip-AVC | iTunes РАЛЬФ 2.14 GB
Фильмы 2015 года Я, Эрл и умирающая девушка / Me and Earl and the Dying Girl (2015) BRRip BOSS 1.4 GB
Фильмы 2015 года Я, Эрл и умирающая девушка / Me and Earl and the Dying Girl (2015) HDRip | iTunes BOSS 2.05 GB
Фильмы 2015 года Я, Эрл и умирающая девушка / Me And Earl And The Dying Girl (Альфонсо Гомез-Рейон / Alfonso Gomez-Rejon) [2015, США, драма, комедия, BDRip] Sub (Rus, Eng) TorrentFilm 1.33 GB
Фильмы 2015 года Я, Эрл и умирающая девушка / Me and Earl and the Dying Girl (Альфонсо Гомез-Рейон / Alfonso Gomez-Rejon) [2015, США, драма, комедия, HDRip] DVO (Sunny Films) TorrentFilm 1.47 GB
Фильмы 2015 года Я, Эрл и умирающая девушка / Me and Earl and the Dying Girl (Альфонсо Гомез-Рейон / Alfonso Gomez-Rejon) [2015, США, драма, комедия, HDRip] MVO + Sub Rus TorrentFilm 1.44 GB
Фильмы 2015 года Я, Эрл и умирающая девушка / Me and Earl and the Dying Girl (Альфонсо Гомез-Рейон / Alfonso Gomez-Rejon) [2015, США, комедия, драма, HDRip] DVO (STEPonee) TorrentFilm 1.47 GB
Показать сообщения:    

Текущее время: Сегодня 16:57

Часовой пояс: GMT



Вы не можете начинать темы
Вы не можете отвечать на сообщения
Вы не можете редактировать свои сообщения
Вы не можете удалять свои сообщения
Вы не можете голосовать в опросах
Вы не можете прикреплять файлы к сообщениям
Вы не можете скачивать файлы