Я, Эрл и умирающая девушка / Me and Earl and the Dying Girl (Альфонсо Гомез-Рейон / Alfonso Gomez-Rejon) [2015, США, драма, комедия, HDRip] DVO (Sunny Films)

 
Автор Сообщение

TorrentFilm ®

Пол:

Стаж: 2 года

Сообщений: 7741



Награды: Нет

Торрент-статистика

Создавать темы 23-Ноя-2015 00:08

[Цитировать]

Я, Эрл и умирающая девушка / Me and Earl and the Dying Girl Страна: США
Жанр: драма, комедия
Год выпуска: 2015
Продолжительность: 01:45:12
Перевод: Любительский (двухголосый закадровый) Sunny Films
Cубтитры: нет
Режиссер: Альфонсо Гомез-Рейон / Alfonso Gomez-Rejon
В ролях: Томас Манн, АрДжей Сайлер, Оливия Кук, Ник Офферман, Конни Бриттон, Молли Шеннон, Джон Бернтал, К.С. Хьюз, Мэтт Беннетт, Масам Холден
Описание: История о подростке-режиссере, который пытается оказывать поддержку болеющей раком однокласснице.

Качество видео: HDRip
Формат видео: AVI
Видео: 720x304 (2.37:1), 23.976 fps, XviD build 73 ~1795 kbps avg, 0.34 bit/pixel
Аудио: 48 kHz, AC3 Dolby Digital, 2/0 (L,R) ch, ~192 kbps

MediaInfo

Формат : AVI
Формат/Информация : Audio Video Interleave
Размер файла : 1,47 Гбайт
Продолжительность : 1 ч. 45 м.
Общий поток : 1997 Кбит/сек
Программа кодирования : VirtualDubMod 1.5.10.3 | www.virtualdub-fr.org || (build 2550/release)
Библиотека кодирования : VirtualDubMod build 2550/release
Видео
Идентификатор : 0
Формат : MPEG-4 Visual
Профиль формата : Advanced Simple@L5
Параметр BVOP формата : 1
Параметр QPel формата : Нет
Параметр GMC формата : Без точки перехода
Параметр матрицы формата : Выборочная
Идентификатор кодека : XVID
Идентификатор кодека/Подсказка : XviD
Продолжительность : 1 ч. 45 м.
Битрейт : 1796 Кбит/сек
Ширина : 720 пикселей
Высота : 304 пикселя
Соотношение сторон : 2,35:1
Частота кадров : 23,976 кадра/сек
Цветовое пространство : YUV
Субдискретизация насыщенности : 4:2:0
Битовая глубина : 8 бит
Тип развёртки : Прогрессивная
Метод сжатия : С потерями
Бит/(Пиксели*Кадры) : 0.342
Размер потока : 1,32 Гбайт (90%)
Библиотека кодирования : XviD 73
Аудио
Идентификатор : 1
Формат : AC-3
Формат/Информация : Audio Coding 3
Расширение режима : CM (complete main)
Параметр Endianness формата : Big
Идентификатор кодека : 2000
Продолжительность : 1 ч. 45 м.
Вид битрейта : Постоянный
Битрейт : 192 Кбит/сек
Каналы : 2 канала
Расположение каналов : Front: L R
Частота : 48,0 КГц
Битовая глубина : 16 бит
Метод сжатия : С потерями
Размер потока : 144 Мбайт (10%)
Выравнивание : Разделение по промежуткам
Продолжительность промежутка : 42 мс. (1,00 видеокадр)
Время предзагрузки промежутка : 500 мс.

Скриншоты

[Профиль] [ЛС]
Кто просматривает тему:

Форум Тема Автор Размер
Фильмы 2015 года Я, Эрл и умирающая девушка / Me and Earl and the Dying Girl (2015) BDRip-AVC | iTunes РАЛЬФ 2.14 GB
Фильмы 2015 года Я, Эрл и умирающая девушка / Me and Earl and the Dying Girl (2015) BRRip BOSS 1.4 GB
Фильмы 2015 года Я, Эрл и умирающая девушка / Me and Earl and the Dying Girl (2015) HDRip | iTunes BOSS 2.05 GB
Фильмы 2015 года Я, Эрл и умирающая девушка / Me And Earl And The Dying Girl (Альфонсо Гомез-Рейон / Alfonso Gomez-Rejon) [2015, США, драма, комедия, BDRip] Sub (Rus, Eng) TorrentFilm 1.33 GB
Фильмы 2015 года Я, Эрл и умирающая девушка / Me and Earl and the Dying Girl (Альфонсо Гомез-Рейон / Alfonso Gomez-Rejon) [2015, США, драма, комедия, HDRip] MVO + Sub Rus TorrentFilm 1.44 GB
R.G.TorrentFilm Video Я, Эрл и умирающая девушка / Me and Earl and the Dying Girl (Альфонсо Гомез-Рейон / Alfonso Gomez-Rejon) [2015, США, Драма, комедия, экранизация, HDRip] MVO (Tunes) + Sub (Rus) AleksSin 1.45 GB
Фильмы 2015 года Я, Эрл и умирающая девушка / Me and Earl and the Dying Girl (Альфонсо Гомез-Рейон / Alfonso Gomez-Rejon) [2015, США, комедия, драма, HDRip] DVO (STEPonee) TorrentFilm 1.47 GB
Показать сообщения:    

Текущее время: Сегодня 00:29

Часовой пояс: GMT



Вы не можете начинать темы
Вы не можете отвечать на сообщения
Вы не можете редактировать свои сообщения
Вы не можете удалять свои сообщения
Вы не можете голосовать в опросах
Вы не можете прикреплять файлы к сообщениям
Вы не можете скачивать файлы