Я - Четвертый / I Am Number Four (2011) BDRip 1080p от MediaClub | D, P1

 
Автор Сообщение

sergej644 ®

Пол:

Стаж: 4 года 11 месяцев

Сообщений: 6035

Откуда: Soviet Union



Награды: Нет

Торрент-статистика

Создавать темы 13-Мар-2015 19:10

[Цитировать]

--Информация о фильме
Название: Я - Четвертый
Оригинальное название: I Am Number Four
Год выпуска: 2011
Жанр: Фантастика, боевик, триллер, экранизация
Режиссер: Д. Дж. Карузо
В ролях: Алекс Петтифер, Тимоти Олифант, Тереза Палмер, Дианна Агрон, Каллэн МакОлиффи, Кевин Дюран, Джейк Эйбел, Джефф Хочендонер, Патрик Сибис, Грег Таунли, Рубен Лэнгдон, Эмили Уикершем
Описание: Обычный с виду подросток Джон Смит на самом деле — один из последних выживших обитателей далекой планеты. Джон вынужден скрываться от страшных врагов, посланных уничтожить его, ему приходится менять имена, постоянно переезжая с места на место со своим опекуном Генри. В разных городках и в разных школах Джон всегда был новичком без прошлого, но однажды он нашел место, которое смог назвать домом: в маленьком городке в Огайо Джон встретил свою любовь. Теперь ему предстоит открыть в себе уникальные способности, сразиться с древними и страшными врагами своего народа и осознать свое удивительное предназначение. Экранизация по произведению: Джоби Хьюз, Джеймс Фрэй

Выпущено: США / DreamWorks SKG, Reliance Big Entertainment, Bay Films
Продолжительность: 01:49:34
Перевод: Дублированный, профессиональный одноголосый
Файл
Качество: BDRip 1080p
Видео: MPEG-4 AVC, 12000 Кбит/с, 1920x1036, 23.976 кадр/с
Аудио #1: Русский (AC3, 6 ch, 640 Кбит/с) / Дублированный (BD EUR)
Аудио #2: Русский (DTS, 6 ch, 1344 Кбит/с) / Профессиональный одноголосый (Дасевич)
Аудио #3: Украинский (AC3, 6 ch, 640 Кбит/с) / Дублированный (BD EUR)
Аудио #4: Английский (DTS, 6 ch, 1344 Кбит/с)
Субтитры: Русские (форсированные, полные), украинские (форсированные, полные), английские (full, SDH)
Семпл

Скриншоты

О релизе

Rip by kaspr
За исходник спасибо: HDTracker

MI

x264 [info]: frame I:973 Avg QP:17.07 size:249133
x264 [info]: frame P:41674 Avg QP:19.20 size: 96678
x264 [info]: frame B:114992 Avg QP:21.46 size: 48521
x264 [info]: consecutive B-frames: 4.8% 7.7% 14.7% 12.6% 14.5% 40.4% 3.7% 0.6% 0.5% 0.4%
***********************************************************************************************************************
Общее
Уникальный идентификатор : 172976960483353034450848712337945759005 (0x8222269A1184D33A8292215873C78D1D)
Полное имя : D:Mои раздачиYa.chetvertyi.2011.BDRip.1080p-MediaClub.mkv
Формат : Matroska
Версия формата : Version 4 / Version 2
Размер файла : 12,2 Гбайт
Продолжительность : 1 ч. 49 м.
Общий поток : 16,0 Мбит/сек
Название фильма : -=MediaClub-kaspr=-
Дата кодирования : UTC 2015-03-11 05:05:15
Программа кодирования : mkvmerge v6.9.1 ('Blue Panther') 64bit built on Apr 18 2014 18:23:38
Библиотека кодирования : libebml v1.3.0 + libmatroska v1.4.1
Видео
Идентификатор : 1
Формат : AVC
Формат/Информация : Advanced Video Codec
Профиль формата : High@L4.1
Параметр CABAC формата : Да
Параметр ReFrames формата : 4 кадра
Идентификатор кодека : V_MPEG4/ISO/AVC
Продолжительность : 1 ч. 49 м.
Битрейт : 12,0 Мбит/сек
Ширина : 1920 пикселей
Высота : 1036 пикселей
Соотношение сторон : 1,85:1
Режим частоты кадров : Постоянный
Частота кадров : 23,976 кадра/сек
Цветовое пространство : YUV
Субдискретизация насыщенности : 4:2:0
Битовая глубина : 8 бит
Тип развёртки : Прогрессивная
Бит/(Пиксели*Кадры) : 0.252
Размер потока : 8,93 Гбайт (73%)
Заголовок : -=MediaClub-kaspr=-
Библиотека кодирования : x264 core 142 r2431+42 c69a006 tMod [8-bit@all X86_64]
Настройки программы : cabac=1 / ref=4 / deblock=1:-3:-3 / analyse=0x3:0x113 / me=umh / subme=11 / psy=1 / fade_compensate=0.00 / psy_rd=1.00:0.15 / mixed_ref=1 / me_range=32 / chroma_me=1 / trellis=2 / 8x8dct=1 / cqm=0 / deadzone=21,11 / fast_pskip=0 / chroma_qp_offset=-3 / threads=12 / lookahead_threads=2 / sliced_threads=0 / nr=0 / decimate=0 / interlaced=0 / bluray_compat=0 / constrained_intra=0 / fgo=0 / bframes=9 / b_pyramid=2 / b_adapt=2 / b_bias=0 / direct=3 / weightb=1 / open_gop=0 / weightp=2 / keyint=240 / keyint_min=23 / scenecut=40 / intra_refresh=0 / rc=2pass / mbtree=0 / bitrate=12000 / ratetol=1.0 / qcomp=0.60 / qpmin=0:0:0 / qpmax=69:69:69 / qpstep=4 / cplxblur=20.0 / qblur=0.5 / ip_ratio=1.40 / pb_ratio=1.30 / aq=4:0.80 / aq-sensitivity=10.00 / aq-factor=1.00:1.00:1.00 / aq2=0 / aq3=0
Default : Да
Forced : Нет
Аудио #1
Идентификатор : 2
Формат : AC-3
Формат/Информация : Audio Coding 3
Расширение режима : CM (complete main)
Параметр Endianness формата : Big
Идентификатор кодека : A_AC3
Продолжительность : 1 ч. 49 м.
Вид битрейта : Постоянный
Битрейт : 640 Кбит/сек
Каналы : 6 каналов
Расположение каналов : Front: L C R, Side: L R, LFE
Частота : 48,0 КГц
Битовая глубина : 16 бит
Метод сжатия : С потерями
Размер потока : 502 Мбайт (4%)
Заголовок : Dub
Язык : Russian
Default : Да
Forced : Нет
Аудио #2
Идентификатор : 3
Формат : DTS
Формат/Информация : Digital Theater Systems
Режим : 16
Параметр Endianness формата : Big
Идентификатор кодека : A_DTS
Продолжительность : 1 ч. 49 м.
Вид битрейта : Постоянный
Битрейт : 1344 Кбит/сек
Каналы : 6 каналов
Расположение каналов : Front: L C R, Side: L R, LFE
Частота : 48,0 КГц
Битовая глубина : 24 бит
Метод сжатия : С потерями
Размер потока : 1,03 Гбайт (8%)
Заголовок : Дасевич
Язык : Russian
Default : Нет
Forced : Нет
Аудио #3
Идентификатор : 4
Формат : AC-3
Формат/Информация : Audio Coding 3
Расширение режима : CM (complete main)
Параметр Endianness формата : Big
Идентификатор кодека : A_AC3
Продолжительность : 1 ч. 49 м.
Вид битрейта : Постоянный
Битрейт : 640 Кбит/сек
Каналы : 6 каналов
Расположение каналов : Front: L C R, Side: L R, LFE
Частота : 48,0 КГц
Битовая глубина : 16 бит
Метод сжатия : С потерями
Размер потока : 502 Мбайт (4%)
Заголовок : Dub
Язык : Ukrainian
Default : Нет
Forced : Нет
Аудио #4
Идентификатор : 5
Формат : DTS
Формат/Информация : Digital Theater Systems
Режим : 16
Параметр Endianness формата : Big
Идентификатор кодека : A_DTS
Продолжительность : 1 ч. 49 м.
Вид битрейта : Постоянный
Битрейт : 1344 Кбит/сек
Каналы : 6 каналов
Расположение каналов : Front: L C R, Side: L R, LFE
Частота : 48,0 КГц
Битовая глубина : 24 бит
Метод сжатия : С потерями
Размер потока : 1,03 Гбайт (8%)
Язык : English
Default : Нет
Forced : Нет
Текст #1
Идентификатор : 6
Формат : UTF-8
Идентификатор кодека : S_TEXT/UTF8
Идентификатор кодека/Информация : UTF-8 Plain Text
Заголовок : forced
Язык : Russian
Default : Да
Forced : Нет
Текст #2
Идентификатор : 7
Формат : UTF-8
Идентификатор кодека : S_TEXT/UTF8
Идентификатор кодека/Информация : UTF-8 Plain Text
Заголовок : full
Язык : Russian
Default : Нет
Forced : Нет
Текст #3
Идентификатор : 8
Формат : UTF-8
Идентификатор кодека : S_TEXT/UTF8
Идентификатор кодека/Информация : UTF-8 Plain Text
Заголовок : forced
Язык : Ukrainian
Default : Нет
Forced : Нет
Текст #4
Идентификатор : 9
Формат : UTF-8
Идентификатор кодека : S_TEXT/UTF8
Идентификатор кодека/Информация : UTF-8 Plain Text
Заголовок : full
Язык : Ukrainian
Default : Нет
Forced : Нет
Текст #5
Идентификатор : 10
Формат : UTF-8
Идентификатор кодека : S_TEXT/UTF8
Идентификатор кодека/Информация : UTF-8 Plain Text
Заголовок : full
Язык : English
Default : Нет
Forced : Нет
Текст #6
Идентификатор : 11
Формат : UTF-8
Идентификатор кодека : S_TEXT/UTF8
Идентификатор кодека/Информация : UTF-8 Plain Text
Заголовок : SDH
Язык : English
Default : Нет
Forced : Нет
Меню
00:00:00.000 : en:01. Number Three
00:04:09.249 : en:02. The Vision
00:11:33.192 : en:03. Welcome To Paradise
00:18:00.454 : en:04. Back To School
00:25:41.373 : en:05. Legacy Revealed
00:30:58.106 : en:06. Getting To Know Sarah
00:39:29.534 : en:07. Malcolm Spellman
00:45:30.311 : en:08. Haunted Hayride
00:54:51.663 : en:09. Your Dad Was Right
01:03:43.403 : en:10. Finding Henri
01:14:23.209 : en:11. Who Are You?
01:21:59.790 : en:12. Darkroom
01:27:39.337 : en:13. Working Together
01:32:27.625 : en:14. Rising From The Ashes
01:37:03.568 : en:15. We Know Where To Go
01:41:56.152 : en:16. End Credits
--
[Профиль] [ЛС]
Кто просматривает тему:

Показать сообщения:    

Текущее время: Сегодня 11:55

Часовой пояс: GMT



Вы не можете начинать темы
Вы не можете отвечать на сообщения
Вы не можете редактировать свои сообщения
Вы не можете удалять свои сообщения
Вы не можете голосовать в опросах
Вы не можете прикреплять файлы к сообщениям
Вы не можете скачивать файлы