Я, Франсуа Вийон, вор, убийца, поэт / Je, Francois Villon, assassin, voleur, poete (Серж Мейнар / Serge Meynard) [2010, Франция, биографическая драма, экранизация, DVB] Original (Fre) + Sub (rus)

 
Автор Сообщение

TorrentFilm ®

Пол:

Стаж: 2 года

Сообщений: 7741



Награды: Нет

Торрент-статистика

Создавать темы 10-Фев-2015 00:01

[Цитировать]

Я, Франсуа Вийон, вор, убийца, поэт
Je, François Villon, assassin, voleur, poète- Страна: Франция
Жанр: биографическая драма, экранизация
Год выпуска: 2010
Продолжительность: 01:30:33
Перевод: Субтитры (перевод Éclair Group)
Cубтитры: русские
Оригинальная аудиодорожка: французский
Режиссер: Серж Мейнар / Serge MeynardВ ролях: Франсис Рено / Francis Renaud (François Villon), Филипп Наон / Philippe Nahon (Guillaume de Villon), Патрик Лизана / Patrick Lizana (Thibaut D'aussigny), Сагамор Стевенен / Sagamore Stévenin (Colin de Cayeux), Кентен Байо / Quentin Baillot (Guy Tabarie), Элен де Сен-Пьер / Hélène de Saint-Père (Catherine de Bruyère), Гаэль Бона / Gaëlle Bona (Isabelle), Дени Лаван / Denis Lavant (Bezon)
Описание: По роману Жана Теле / Jean Teulé "Я, Франсуа Вийон / Je, François Villon" (2006).
Величайший из поэтов французского средневековья родился в нищете, среди мертвых и чумных в день, когда Жанна д'Арк сгорела на костре. Поэтический дар в нем причудливым образом сочетался с необузданным характером. Когда капризная муза отворачивалась, автор прекрасных баллад черпал вдохновение в самых низменных человеческих страстях...
Доп. информация: TV5MONDE DVB-S. В отличие от имеющихся на трекере релизов – здесь перевод в виде русских субтитров.
Участник Luchon Film Festival 2010.

Качество видео: DVB
Формат видео: MKV
Видео: MPEG Video 2, 704x576@1024x576 (16:9), 25 fps, ~2309 kbps avg, 0.228 bit/pixel
Аудио: Французский (MPEG Audio 2, 2 ch, 48 kHz, ~192.00 kbps avg)
Формат субтитров: hardsub (неотключаемые)

MediaInfo

ОбщееУникальный идентификатор : 200752953161543194077634995412144319220 (0x97079CC5B57A92B38A5B4A313C316AF4)Полное имя : E:\My Torrents 2\[apreder]Je_Francois_Villon_assassin_voleur_poete(2010)DVB.mkvФормат : MatroskaВерсия формата : Version 2Размер файла : 1,61 ГбайтПродолжительность : 1 ч. 30 м.Режим общего битрейта : ПеременныйОбщий поток : 2552 Кбит/секДата кодирования : UTC 2015-02-08 16:19:53Программа кодирования : mkvmerge v7.5.0 ('Glass Culture') 64bit built on Jan 4 2015 16:48:44Библиотека кодирования : libebml v1.3.1 + libmatroska v1.4.2
ВидеоИдентификатор : 1Формат : MPEG VideoВерсия формата : Version 2Профиль формата : Main@MainПараметр BVOP формата : ДаПараметр матрицы формата : ВыборочнаяПараметр GOP формата : M=3, N=15Format_Settings_PictureStructure : FrameИдентификатор кодека : V_MPEG2Идентификатор кодека/Информация : MPEG 1 or 2 VideoПродолжительность : 1 ч. 30 м.Вид битрейта : ПеременныйБитрейт : 2309 Кбит/секШирина : 704 пикселяВысота : 576 пикселейСоотношение сторон : 16:9Режим частоты кадров : ПостоянныйЧастота кадров : 25,000 кадров/секСтандарт вещания : PALЦветовое пространство : YUVСубдискретизация насыщенности : 4:2:0Битовая глубина : 8 битТип развёртки : ЧересстрочнаяПорядок развёртки : Верхнее поле первоеМетод сжатия : С потерямиБит/(Пиксели*Кадры) : 0.228Временной код первого кадра : 00:00:00:00Оригинал временного кода : Group of pictures headerРазмер потока : 1,46 Гбайт (90%)Default : ДаForced : НетGop_OpenClosed_FirstFrame : Closed
АудиоИдентификатор : 2Формат : MPEG AudioВерсия формата : Version 1Профиль формата : Layer 2Идентификатор кодека : A_MPEG/L2Идентификатор кодека/Подсказка : MP2Продолжительность : 1 ч. 30 м.Вид битрейта : ПостоянныйБитрейт : 192 Кбит/секКаналы : 2 каналаЧастота : 48,0 КГцМетод сжатия : С потерямиРазмер потока : 124 Мбайт (8%)Язык : FrenchDefault : ДаForced : Нет

Скриншот c названием фильма

Скриншоты


Резервные скриншоты


-[2'112]
[Профиль] [ЛС]

Создавать темы 06-Авг-2015 22:44 (спустя 5 месяцев 24 дня)

Топик был перенесен из форума Фильмы до 2014 года в форум Фильмы до 2012 года
sergej644
 

Создавать темы 12-Июн-2016 07:54 (спустя 1 год 4 месяца)

Топик был перенесен из форума Фильмы 2011 года в форум Фильмы 2010 года
Russian Mafia
 
Кто просматривает тему:

Форум Тема Автор Размер
Фильмы 2006-2008 года Астерикс на Олимпийских играх / Asterix aux jeux olympiques (Фредерик Форестье / Frederic Forestier, Тома Лангманн / Thomas Langmann) [2008, Германия, Франция, Италия, фэнтези, комедия, приключения... painkiller 1.46 GB
Фильмы 2006-2008 года Белая опасность / Die Jahrhundertlawine (Йорг Людорф / Jörg Lühdorff) [2008, Германия, Франция, Австрия, Бельгия, триллер, драма, SATRip] MVO (ТВ XXI) + Original Ger TorrentFilm 1.37 GB
Фильмы 2010 года Броненосец / Acorazado (Альваро Куриэль / Álvaro Curiel) [2010, Мексика, Испания, Франция, Комедия, DVDRip] MVO + Original Spa TorrentFilm 1.45 GB
Фильмы 2015 года Будь мужчиной / Будь мужиком / Man Up (Бен Палмер / Ben Palmer) [2015, Великобритания, Франция, романтическая мелодрама, комедия, HDRip] Sub Rus + Original Eng TorrentFilm 1.41 GB
Фильмы 2006-2008 года Вдали от волнений / Les tremblements lointains (Манюэль Путт / Manuel Poutte) [2008, Бельгия, Франция, драма, DVB-AVC] MVO (Kino Polska) TorrentFilm 621 MB
Фильмы 2009 года Видения – Из жизни Хильдегарды фон Бинген / Vision - Aus dem Leben der Hildegard von Bingen (Маргарете фон Тротта / Margarethe von Trotta) [2009, Германия, Франция, Биография, Драма, DVDRip] VO... painkiller 1.32 GB
Фильмы 2011 года Виноват Фидель / La faute a Fidel (Жюли Гаврас / Julie Gavras) [2006, Италия, Франция, историческая драма, экранизация, DVB] Original (Fre) + Sub (rus) TorrentFilm 1.66 GB
Фильмы 2014 года Воздушный маршал / Non-Stop (Хауме Кольет-Серра / Jaume Collet-Serra) [2014, Великобритания, Франция, США, Боевик, триллер, драма, криминал, BDRip-AVC] Dub + Sub Rus, Eng + Original Eng reversefile 2.85 GB
Показать сообщения:    

Текущее время: Сегодня 01:08

Часовой пояс: GMT



Вы не можете начинать темы
Вы не можете отвечать на сообщения
Вы не можете редактировать свои сообщения
Вы не можете удалять свои сообщения
Вы не можете голосовать в опросах
Вы не можете прикреплять файлы к сообщениям
Вы не можете скачивать файлы