Я, Франкенштейн в 3Д / I, Frankenstein 3D (Стюарт Битти / Stuart Beattie) [2014, фэнтези, боевик, приключения, BDRip-AVC] ( Half SideBySide / Горизонтальная анаморфная стереопара) [US Transfer] Dub + Original (Eng) + Sub (Rus, Eng)

 
Автор Сообщение

TorrentFilm ®

Пол:

Стаж: 2 года

Сообщений: 7741



Награды: Нет

Торрент-статистика

Создавать темы 04-Янв-2016 00:03

[Цитировать]

Я, Франкенштейн / I, Frankenstein
Страна: Австралия, США
Студия: 20th Century Fox, Lionsgate, Lakeshore Entertainment, SKE Films, Hopscotch Features
Жанр: фэнтези, боевик, приключения
Год выпуска: 2014
Продолжительность: 01:32:24
Перевод: Профессиональный (дублированный) [BD RUS]
Оригинальная аудиодорожка: английская
Cубтитры: русские, английские
Режиссер: Стюарт Битти / Stuart Beattie
В ролях: Аарон Экхарт, Ивонн Страховски, Билл Найи, Джай Кортни, Миранда Отто, Кэйтлин Стэйси, Кевин Гревье, Аден Янг, Дениз Акдениз, Крис Пэнг, Вирджиния Ле Брун
Описание: Он — монстр. Он — двухсотлетний плод безумной фантазии своего создателя. Он — легенда. Мир, в котором он живет, населен древними горгульями и бессмертными демонами, которые сражаются за обладание человечеством. Величественные соборы скрывают огромные арсеналы, за дверьми научных лабораторий проводятся эксперименты по воскрешению мертвых. Война двух кланов могущественных существ достигает своего пика. И только он, Адам, монстр Франкенштейна, в силах ее остановить.

Релиз: fanatus
Качество видео: BDRip
Исходник: I.Frankenstein.2014.3D.Blu-Ray.1080p.US.BLUEBIRD
Контейнер: MKV
Формат 3D: Half SideBySide / Горизонтальная анаморфная стереопара
Порядок ракурсов: левый ракурс первый
Видео кодек: x264
Аудио кодек: DTS
Видео: MPEG-4 AVC, 15.3 Mbps, 1920x1080 (16:9), 23.976 fps, 0.308 bit/pixel
Аудио 1: русский (DTS, 6 ch, 48 kHz, 1510 kbps)
Аудио 2: английский (DTS, 6 ch, 48 kHz, 1510 kbps)
Формат субтитров: softsub (SRT)
Главы: есть

MediaInfo

General
Unique ID : 223865376882666150233621866707848789265 (0xA86AE73DAF522FEC929FFBC1D0BBFD11)
Complete name : F:\I_Frankenstein.2014.3D-HalfSBS.x264.BDRip.1080p.fanatus.mkv
Format : Matroska
Format version : Version 2
File size : 11.8 GiB
Duration : 1h 32mn
Overall bit rate : 18.3 Mbps
Movie name : I, Frankenstein (2014) - fanatus
Encoded date : UTC 2014-08-13 08:32:35
Writing application : mkvmerge v3.4.0 ('Rapunzel') сборка от May 15 2010 09:38:20
Writing library : libebml v0.8.0 + libmatroska v0.9.0
Attachment : Yes
Video
ID : 1
Format : AVC
Format/Info : Advanced Video Codec
Format profile : High@L4.1
MultiView_Count : 2
Format settings, CABAC : Yes
Format settings, ReFrames : 4 frames
Codec ID : V_MPEG4/ISO/AVC
Duration : 1h 32mn
Bit rate : 15.3 Mbps
Width : 1 920 pixels
Height : 1 080 pixels
Display aspect ratio : 16:9
Frame rate : 23.976 fps
Color space : YUV
Chroma subsampling : 4:2:0
Bit depth : 8 bits
Scan type : Progressive
Bits/(Pixel*Frame) : 0.308
Stream size : 9.64 GiB (82%)
Title : 3D-HalfSBS BDRip(1080p)
Writing library : x264 core 142 r2431+42 c69a006 tMod [8-bit@all X86]
Encoding settings : cabac=1 / ref=4 / deblock=1:-3:-3 / analyse=0x3:0x113 / me=umh / subme=11 / psy=1 / fade_compensate=0.00 / psy_rd=1.10:0.00 / mixed_ref=1 / me_range=64 / chroma_me=1 / trellis=2 / 8x8dct=1 / cqm=0 / deadzone=21,11 / fast_pskip=0 / chroma_qp_offset=-2 / threads=16 / lookahead_threads=2 / sliced_threads=0 / nr=0 / decimate=0 / interlaced=0 / bluray_compat=0 / constrained_intra=0 / fgo=0 / bframes=9 / b_pyramid=2 / b_adapt=2 / b_bias=0 / direct=3 / weightb=1 / open_gop=0 / weightp=2 / keyint=240 / keyint_min=23 / scenecut=40 / intra_refresh=0 / rc_lookahead=240 / rc=2pass / mbtree=1 / bitrate=15300 / ratetol=1.0 / qcomp=0.70 / qpmin=0:0:0 / qpmax=69:69:69 / qpstep=4 / cplxblur=20.0 / qblur=0.5 / vbv_maxrate=50000 / vbv_bufsize=62500 / nal_hrd=none / filler=0 / frame-packing=3 / ip_ratio=1.35 / aq=4:0.90 / aq-sensitivity=10.00 / aq-factor=1.00:1.00:1.00 / aq2=0 / aq3=0
Language : English
Default : Yes
Forced : No
Audio #1
ID : 2
Format : DTS
Format/Info : Digital Theater Systems
Codec ID : A_DTS
Duration : 1h 32mn
Bit rate mode : Constant
Bit rate : 1 510 Kbps
Channel(s) : 6 channels
Channel positions : Front: L C R, Side: L R, LFE
Sampling rate : 48.0 KHz
Bit depth : 16 bits
Compression mode : Lossy
Stream size : 998 MiB (8%)
Title : Dub (BD Rus)
Language : Russian
Default : Yes
Forced : No
Audio #2
ID : 3
Format : DTS
Format/Info : Digital Theater Systems
Codec ID : A_DTS
Duration : 1h 32mn
Bit rate mode : Constant
Bit rate : 1 510 Kbps
Channel(s) : 6 channels
Channel positions : Front: L C R, Side: L R, LFE
Sampling rate : 48.0 KHz
Bit depth : 16 bits
Compression mode : Lossy
Stream size : 998 MiB (8%)
Title : Original
Language : English
Default : No
Forced : No
Text #1
ID : 4
Format : UTF-8
Codec ID : S_TEXT/UTF8
Codec ID/Info : UTF-8 Plain Text
Title : Full
Language : Russian
Default : No
Forced : No
Text #2
ID : 5
Format : UTF-8
Codec ID : S_TEXT/UTF8
Codec ID/Info : UTF-8 Plain Text
Title : Full
Language : English
Default : No
Forced : No
Text #3
ID : 6
Format : UTF-8
Codec ID : S_TEXT/UTF8
Codec ID/Info : UTF-8 Plain Text
Title : SDH
Language : English
Default : No
Forced : No
Menu
00:00:00.000 : en:Chapter 01
00:02:28.857 : en:Chapter 02
00:04:56.421 : en:Chapter 03
00:09:19.767 : en:Chapter 04
00:12:02.471 : en:Chapter 05
00:17:39.725 : en:Chapter 06
00:21:26.994 : en:Chapter 07
00:24:58.496 : en:Chapter 08
00:29:42.614 : en:Chapter 09
00:33:49.569 : en:Chapter 10
00:37:56.274 : en:Chapter 11
00:43:54.632 : en:Chapter 12
00:48:23.233 : en:Chapter 13
00:52:29.187 : en:Chapter 14
00:56:04.736 : en:Chapter 15
00:59:56.301 : en:Chapter 16
01:06:15.513 : en:Chapter 17
01:08:58.467 : en:Chapter 18
01:12:59.333 : en:Chapter 19
01:16:24.538 : en:Chapter 20
01:20:22.859 : en:Chapter 21
01:22:00.665 : en:Chapter 22
01:32:23.537 : en:Chapter 23

x264 [info]

x264 [info]: 1920x1080p 1:1 @ 24000/1001 fps (cfr)
x264 [info]: color matrix: undef
x264 [info]: using SAR=1/1
x264 [info]: using cpu capabilities: MMX2 SSE2Fast LZCNT
x264 [info]: profile High, level 4.1
x264 [info]: started at Wed Aug 13 00:47:10 2014
x264 [info]: frame I:1357 Avg QP:11.37 size:274826
x264 [info]: frame P:32634 Avg QP:15.61 size:123697
x264 [info]: frame B:98928 Avg QP:17.46 size: 62544
x264 [info]: consecutive B-frames: 3.1% 9.1% 9.4% 18.6% 15.8% 34.7% 5.0% 1.3% 1.4% 1.5%
x264 [info]: mb I I16..4: 28.8% 57.5% 13.8%
x264 [info]: mb P I16..4: 0.7% 11.4% 1.4% P16..4: 19.2% 24.2% 9.0% 0.0% 0.0% skip:34.1%
x264 [info]: mb B I16..4: 0.1% 2.6% 0.2% B16..8: 27.0% 16.9% 3.8% direct: 7.2% skip:42.2% L0:40.2% L1:42.4% BI:17.4%
x264 [info]: 8x8 transform intra:82.2% inter:59.9%
x264 [info]: direct mvs spatial:96.3% temporal:3.7%
x264 [info]: coded y,uvDC,uvAC intra: 88.4% 89.3% 80.4% inter: 34.1% 32.8% 20.8%
x264 [info]: i16 v,h,dc,p: 47% 10% 23% 20%
x264 [info]: i8 v,h,dc,ddl,ddr,vr,hd,vl,hu: 17% 5% 7% 9% 12% 17% 9% 14% 9%
x264 [info]: i4 v,h,dc,ddl,ddr,vr,hd,vl,hu: 19% 7% 10% 7% 11% 16% 8% 12% 10%
x264 [info]: i8c dc,h,v,p: 48% 15% 19% 18%
x264 [info]: Weighted P-Frames: Y:3.4% UV:1.7%
x264 [info]: ref P L0: 46.1% 11.8% 28.8% 11.7% 1.6% 0.1%
x264 [info]: ref B L0: 83.3% 13.7% 3.0%
x264 [info]: ref B L1: 90.4% 9.6%
x264 [info]: kb/s:15292.05
x264 [info]: encoded 132919 frames, 3.562 fps, 15292.05 kb/s, 10106 MB
x264 [info]: ended at Wed Aug 13 11:09:07 2014
x264 [info]: encoding duration 10:21:57

Скриншот c названием фильма

[Профиль] [ЛС]
Кто просматривает тему:

Форум Тема Автор Размер
Фильмы 2006-2008 года Астерикс на Олимпийских играх / Asterix aux jeux olympiques (Фредерик Форестье / Frederic Forestier, Тома Лангманн / Thomas Langmann) [2008, Германия, Франция, Италия, фэнтези, комедия, приключения... painkiller 1.46 GB
Фильмы 2006-2008 года Белая опасность / Die Jahrhundertlawine (Йорг Людорф / Jörg Lühdorff) [2008, Германия, Франция, Австрия, Бельгия, триллер, драма, SATRip] MVO (ТВ XXI) + Original Ger TorrentFilm 1.37 GB
Фильмы 2010 года Броненосец / Acorazado (Альваро Куриэль / Álvaro Curiel) [2010, Мексика, Испания, Франция, Комедия, DVDRip] MVO + Original Spa TorrentFilm 1.45 GB
Фильмы 2015 года Будь мужчиной / Будь мужиком / Man Up (Бен Палмер / Ben Palmer) [2015, Великобритания, Франция, романтическая мелодрама, комедия, HDRip] Sub Rus + Original Eng TorrentFilm 1.41 GB
Фильмы 2006-2008 года Вдали от волнений / Les tremblements lointains (Манюэль Путт / Manuel Poutte) [2008, Бельгия, Франция, драма, DVB-AVC] MVO (Kino Polska) TorrentFilm 621 MB
Фильмы 2009 года Видения – Из жизни Хильдегарды фон Бинген / Vision - Aus dem Leben der Hildegard von Bingen (Маргарете фон Тротта / Margarethe von Trotta) [2009, Германия, Франция, Биография, Драма, DVDRip] VO... painkiller 1.32 GB
Фильмы 2011 года Виноват Фидель / La faute a Fidel (Жюли Гаврас / Julie Gavras) [2006, Италия, Франция, историческая драма, экранизация, DVB] Original (Fre) + Sub (rus) TorrentFilm 1.66 GB
Фильмы 2014 года Воздушный маршал / Non-Stop (Хауме Кольет-Серра / Jaume Collet-Serra) [2014, Великобритания, Франция, США, Боевик, триллер, драма, криминал, BDRip-AVC] Dub + Sub Rus, Eng + Original Eng reversefile 2.85 GB
Показать сообщения:    

Текущее время: Сегодня 02:12

Часовой пояс: GMT



Вы не можете начинать темы
Вы не можете отвечать на сообщения
Вы не можете редактировать свои сообщения
Вы не можете удалять свои сообщения
Вы не можете голосовать в опросах
Вы не можете прикреплять файлы к сообщениям
Вы не можете скачивать файлы