Я улыбаюсь в ответ / I Smile Back (2015) WEB-DL 720p | L2

 
Автор Сообщение

Russian Mafia ®

Пол:

Стаж: 1 год 8 месяцев

Сообщений: 4256



Награды: 10 (Подробнее)

За внесенный вклад в развитие сайта (Количество: 1) Mega Seeder 5 (Количество: 1) Top Releaser 3 (Количество: 1)
Торрент-статистика

Создавать темы 10-Апр-2016 08:22

[Цитировать]

Информация о фильме
Название: Я улыбаюсь в ответ
Оригинальное название: I Smile Back
Год выхода: 2015
Жанр: драма
Режиссер: Адам Салки
В ролях: Джош Чарльз, Скайлар Гертнер, Шэйн Коулмэн, Сара Силверман, Ник Тейлор, Миа Баррон, Томас Садоски, Шон Реда, Синтия Дарлоу, Кристин Гриффит
О фильме: Лэни — не очень хорошая мать и жена. Она принимает наркотики, изменяет мужу, исчезает из дома. Но когда наступает день, когда она может потерять семью, она делает отчаянную попытку встать на путь искупления.

Выпущено: США / Egoli Tossell Film AG, Koppelman/Levien
Продолжительность: 01:25:39
Озвучивание: Любительское (двухголосое) [Parovoz Production]
Примечание: Релиз без рекламы.
Файл
Формат: MKV
Качество: WEB-DL 720p
Видео: MPEG-4 AVC, 3958 kb/s, 1820x534
Аудио: Russian: AC3, 192 kb/s (2 ch) / English: AC3, 384 kb/s (6 ch)
Субтитры: English

MI

Format : Matroska
Format version : Version 2
File size : 2.77 GiB
Duration : 1h 25mn
Overall bit rate : 4 626 Kbps
Encoded date : UTC 2016-04-10 08:13:22
Writing application : mkvmerge v7.8.0 ('River Man') 32bit built on Apr 3 2015 12:11:22
Writing library : libebml v1.3.1 + libmatroska v1.4.2
Video
ID : 1
Format : AVC
Format/Info : Advanced Video Codec
Format profile : Main@L3.1
Format settings, CABAC : No
Format settings, ReFrames : 2 frames
Codec ID : V_MPEG4/ISO/AVC
Duration : 1h 25mn
Bit rate : 3 958 Kbps
Width : 1 280 pixels
Height : 534 pixels
Display aspect ratio : 2.40:1
Frame rate mode : Constant
Frame rate : 23.976 fps
Color space : YUV
Chroma subsampling : 4:2:0
Bit depth : 8 bits
Scan type : Progressive
Bits/(Pixel*Frame) : 0.241
Stream size : 2.37 GiB (86%)
Language : English
Default : Yes
Forced : No
Color range : Limited
Color primaries : BT.709
Transfer characteristics : BT.709
Matrix coefficients : BT.709
Audio #1
ID : 2
Format : AC-3
Format/Info : Audio Coding 3
Mode extension : CM (complete main)
Format settings, Endianness : Big
Codec ID : A_AC3
Duration : 1h 25mn
Bit rate mode : Constant
Bit rate : 192 Kbps
Channel(s) : 2 channels
Channel positions : Front: L R
Sampling rate : 48.0 KHz
Bit depth : 16 bits
Compression mode : Lossy
Stream size : 118 MiB (4%)
Language : Russian
Default : Yes
Forced : No
Audio #2
ID : 3
Format : AC-3
Format/Info : Audio Coding 3
Mode extension : CM (complete main)
Format settings, Endianness : Big
Codec ID : A_AC3
Duration : 1h 25mn
Bit rate mode : Constant
Bit rate : 384 Kbps
Channel(s) : 6 channels
Channel positions : Front: L C R, Side: L R, LFE
Sampling rate : 48.0 KHz
Bit depth : 16 bits
Compression mode : Lossy
Stream size : 235 MiB (8%)
Language : English
Default : No
Forced : No
Text
ID : 4
Format : UTF-8
Codec ID : S_TEXT/UTF8
Codec ID/Info : UTF-8 Plain Text
Language : English
Default : No
Forced : No
Menu
00:00:00.000 : en:Chapter 1
00:05:54.000 : en:Chapter 2
00:12:40.000 : en:Chapter 3
00:20:08.000 : en:Chapter 4
00:26:53.000 : en:Chapter 5
00:33:47.000 : en:Chapter 6
00:39:12.000 : en:Chapter 7
00:47:13.000 : en:Chapter 8
00:56:33.000 : en:Chapter 9
01:05:02.000 : en:Chapter 10
01:11:34.000 : en:Chapter 11
01:18:31.000 : en:Chapter 12

Скриншоты



[Профиль] [ЛС]
Кто просматривает тему:

Показать сообщения:    

Текущее время: Сегодня 12:43

Часовой пояс: GMT



Вы не можете начинать темы
Вы не можете отвечать на сообщения
Вы не можете редактировать свои сообщения
Вы не можете удалять свои сообщения
Вы не можете голосовать в опросах
Вы не можете прикреплять файлы к сообщениям
Вы не можете скачивать файлы