Я тебя никогда не забуду (Павел Кадочников) [1983, мелодрама, DVB]

 
Автор Сообщение

reversefile ®

Пол:

Стаж: 4 года 5 месяцев

Сообщений: 842

Откуда: ReverseFile.org



Награды: Нет

Торрент-статистика

Создавать темы 11-Авг-2014 06:19

[Цитировать]

Я тебя никогда не забуду
Запись любезно предоставлена коллегой ItarTass
Жанр: мелодрама
Год выпуска: 1983
Продолжительность: 01:21:15
Режиссёр: Павел Кадочников
В ролях: Ирина Малышева, Евгений Карельских, Виктор Шульгин, Любовь Соколова, Геннадий Нилов, Елена Драпеко, Анатолий Рудаков, Людмила Купина, Электрина Корнеева-Левитан, Владимир Татосов, Татьяна Иванова, Павел Первушин, Любовь Малиновская, Нина Титова, Наталия Кадочникова, Юлия Кадочникова, Павел Кадочников
Описание: Спасая солдата, медсестра Полина отдает свою кровь, после чего обоих отправляют в госпиталь. Через неделю Федор называет Полину своей женой и отправляется на фронт.
Доп. информация: Запись потока *.ts со спутника Ямал 202, 49° в.д., ремукс в *.mpg программой VideoReDo.
Качество видео: DVB
Формат видео: MPEG-PS
Видео: MPEG Video, 704(768)х576, 4:3, 25,000 кадр/сек, 4840 Кбит/сек
Аудио: MPEG Audio, 48,0 КГц, 192 Кбит/сек, 2 канала

MediaInfo

Общее
Полное имя : D:\Torrent\Я тебя никогда не забуду (ZVEZDA).mpg
Формат : MPEG-PS
Размер файла : 2,89 Гбайт
Продолжительность : 1 ч. 21 м.
Режим общего битрейта : Переменный
Общий поток : 5094 Кбит/сек
Видео
Идентификатор : 224 (0xE0)
Формат : MPEG Video
Версия формата : Version 2
Профиль формата : Main@Main
Параметр BVOP формата : Да
Параметр матрицы формата : Выборочная
Параметр GOP формата : M=3, N=24
Продолжительность : 1 ч. 21 м.
Вид битрейта : Переменный
Битрейт : 4840 Кбит/сек
Ширина : 704 пикселя
Высота : 576 пикселей
Соотношение сторон : 4:3
Частота кадров : 25,000 кадров/сек
Стандарт вещания : PAL
Цветовое пространство : YUV
Субдискретизация насыщенности : 4:2:0
Битовая глубина : 8 бит
Тип развёртки : Чересстрочная
Порядок развёртки : Верхнее поле первое
Метод сжатия : С потерями
Бит/(Пиксели*Кадры) : 0.477
Временной код первого кадра : 00:00:00:00
Оригинал временного кода : Group of pictures header
Размер потока : 2,72 Гбайт (94%)
Аудио
Идентификатор : 192 (0xC0)
Формат : MPEG Audio
Версия формата : Version 1
Профиль формата : Layer 2
Продолжительность : 1 ч. 21 м.
Вид битрейта : Постоянный
Битрейт : 192 Кбит/сек
Каналы : 2 канала
Частота : 48,0 КГц
Метод сжатия : С потерями
Размер потока : 112 Мбайт (4%)
[Профиль] [ЛС]

Создавать темы 06-Авг-2015 22:04 (спустя 11 месяцев 26 дней)

Топик был перенесен из форума Кино СССР в форум Кино СССР
sergej644
 
Кто просматривает тему:

Показать сообщения:    

Текущее время: Сегодня 02:44

Часовой пояс: GMT



Вы не можете начинать темы
Вы не можете отвечать на сообщения
Вы не можете редактировать свои сообщения
Вы не можете удалять свои сообщения
Вы не можете голосовать в опросах
Вы не можете прикреплять файлы к сообщениям
Вы не можете скачивать файлы