Я с тобой (2016) WEB-DLRip

 
Автор Сообщение

Шкипер ®

Пол:

Стаж: 1 год 8 месяцев

Сообщений: 53



Награды: Нет

Торрент-статистика

Создавать темы 22-Авг-2016 12:14

[Цитировать]

Информация о фильме
Название: Я с тобой
Год выхода: 2016
Жанр: Мелодрама, экшн
Режиссер: Олег Туранский
В ролях: Дмитрий Сова, Анна Топчий, Сергей Писаренко, Ахтем Сейтаблаев, Александр Попов, Дмитрий Лаленков, Дарья Боцманова, Алексей Смолка, Алексей Череватенко, Сергей Калантай
О фильме:
Пять лет назад Роман и Алексей были просто двумя подростками из спортивного лагеря, влюбленными в одну девушку - Татьяну. Жизнь развела их по разным городам и странам. Против них весь мир - продажная бойцовая федерация, коррумпированные чиновники и даже исторические события: все происходит в переломный для страны момент, и главным героям предстоит отправиться за девушкой в ??оккупированный Славянска. Но после «Революции достоинства» они верят, что заслужили лучшего будущего для своей страны и своих любимых.

Страна: Украина
Студия: Систерз продакшн
Продолжительность: 01:26:15
Перевод: Не требуется
Файл
Кодек: XviD
Качество: WEB-DLRip
Видео: 640x272 (2.35:1), 25 fps, XviD build 73 ~1071 kbps avg, 0.25 bit/pixel
Звук: 44.100 kHz, MPEG Layer 3, 2 ch, ~128.00 kbps avg
Субтитры: Удалены (обрезаны)
Семпл

MI

General
Complete name : D:ТоррентыРип от ШкиперЯ с тобойYa s toboy.WEB-DLRip.by.shkiper.avi
Format : AVI
Format/Info : Audio Video Interleave
File size : 746 MiB
Duration : 1h 26mn
Overall bit rate : 1 209 Kbps
Writing application : VirtualDubMod 1.5.10.3 | www.virtualdub-fr.org || (build 2550/release)
Writing library : VirtualDubMod build 2550/release
Video
ID : 0
Format : MPEG-4 Visual
Format profile : Advanced Simple@L5
Format settings, BVOP : 1
Format settings, QPel : No
Format settings, GMC : No warppoints
Format settings, Matrix : Custom
Codec ID : XVID
Codec ID/Hint : XviD
Duration : 1h 26mn
Bit rate : 1 071 Kbps
Width : 640 pixels
Height : 272 pixels
Display aspect ratio : 2.35:1
Frame rate : 25.000 fps
Color space : YUV
Chroma subsampling : 4:2:0
Bit depth : 8 bits
Scan type : Progressive
Compression mode : Lossy
Bits/(Pixel*Frame) : 0.246
Stream size : 661 MiB (89%)
Writing library : XviD 73
Audio
ID : 1
Format : MPEG Audio
Format version : Version 1
Format profile : Layer 3
Mode : Joint stereo
Codec ID : 55
Codec ID/Hint : MP3
Duration : 1h 26mn
Bit rate mode : Constant
Bit rate : 128 Kbps
Channel(s) : 2 channels
Sampling rate : 44.1 KHz
Compression mode : Lossy
Stream size : 79.0 MiB (11%)
Alignment : Split accross interleaves
Interleave, duration : 40 ms (1.00 video frame)
Interleave, preload duratio : 500 ms
Writing library : LAME3.99r
Encoding settings : -m j -V 4 -q 2 -lowpass 17 -b 128

Скриншоты

Релиз от:
[Профиль] [ЛС]
Показать сообщения:    

Текущее время: Сегодня 11:05

Часовой пояс: GMT



Вы не можете начинать темы
Вы не можете отвечать на сообщения
Вы не можете редактировать свои сообщения
Вы не можете удалять свои сообщения
Вы не можете голосовать в опросах
Вы не можете прикреплять файлы к сообщениям
Вы не можете скачивать файлы