Я солдат / I am soldier (Ронни Томпсон) [2014, боевик] BDRip 720p | L2

 
Автор Сообщение

adeei ®

Пол:

Стаж: 1 год 8 месяцев

Сообщений: 63

Откуда: Россия Иваново



Награды: 3 (Подробнее)

Mega Seeder 3 (Количество: 1) Mega Seeder 2 (Количество: 1) Mega Seeder 1 (Количество: 1)
Торрент-статистика

Создавать темы 11-Апр-2015 09:56

[Цитировать]

Я солдат / I am soldier Год выпуска: 2014
Страна: Великобритания
Студия: Tea Shop & Film Company
Жанр: боевик
Продолжительность: 01:27:57
Перевод: Любительский (двухголосый закадровый) студия Zinko
Cубтитры: английские
Оригинальная аудиодорожка: английский-Режиссер: Ронни Томпсон / Ronnie Thompson-В ролях: Дункан Кэйси, Ли Чарльз, Ноэль Кларк, Филип Десмюль, Джо Иган, Майк Фьюри, Дэвид Гудман, Том Хьюз-Описание: Многие пытаются попасть в полк британского спецназа SAS, но только лучшие могут это сделать. Сюжет сосредоточится на Микки который пройдет через каждую изнурительную стадию отбора, который не только развивает его физически, но и морально.- -Тип релиза: BDRip 720p
Контейнер: MKV
Видео: MPEG-4 AVC, 4462 Кбит/с, 1280x544, 24,000 fps
Аудио#1: Rus, AC3, 192 kb/s (2 ch), 48 kHz
Аудио #2: Eng, AC3, 640 kb/s (6 ch), 48 kHz
Формат субтитров: softsub (SRT)-

MediaInfo

Format : Matroska
Format version : Version 4 / Version 2
File size : 3.32 GiB
Duration : 1h 28mn
Overall bit rate : 5 401 Kbps
Movie name : Я солдат. (Tonik)
Encoded date : UTC 2015-04-11 07:44:14
Writing application : mkvmerge v7.1.0 ('Good Love') 64bit built on Jul 27 2014 13:06:55
Writing library : libebml v1.3.0 + libmatroska v1.4.1
_STATISTICS_WRITING_APP : mkvmerge v7.1.0 ('Good Love') 64bit built on Jul 27 2014 13:06:55
_STATISTICS_WRITING_DATE_UTC : 2015-04-11 07:44:14
_STATISTICS_TAGS : BPS DURATION NUMBER_OF_FRAMES NUMBER_OF_BYTES
DURATION : 01:25:49.291000000
NUMBER_OF_FRAMES : 712
NUMBER_OF_BYTES : 21429
Video
ID : 1
Format : AVC
Format/Info : Advanced Video Codec
Format profile : High@L4.1
Format settings, CABAC : Yes
Format settings, ReFrames : 12 frames
Codec ID : V_MPEG4/ISO/AVC
Bit rate : 4 462 Kbps
Width : 1 280 pixels
Height : 544 pixels
Display aspect ratio : 2.35:1
Frame rate mode : Variable
Original frame rate : 24.000 fps
Color space : YUV
Chroma subsampling : 4:2:0
Bit depth : 8 bits
Scan type : Progressive
Writing library : x264 core 146 r2538 121396c
Encoding settings : cabac=1 / ref=12 / deblock=1:-3:-3 / analyse=0x3:0x133 / me=umh / subme=10 / psy=1 / psy_rd=1.15:0.00 / mixed_ref=1 / me_range=24 / chroma_me=1 / trellis=2 / 8x8dct=1 / cqm=0 / deadzone=21,11 / fast_pskip=0 / chroma_qp_offset=-2 / threads=12 / lookahead_threads=2 / sliced_threads=0 / nr=0 / decimate=0 / interlaced=0 / bluray_compat=0 / constrained_intra=0 / bframes=8 / b_pyramid=2 / b_adapt=2 / b_bias=0 / direct=3 / weightb=1 / open_gop=0 / weightp=2 / keyint=250 / keyint_min=24 / scenecut=40 / intra_refresh=0 / rc_lookahead=60 / rc=crf / mbtree=0 / crf=16.0 / qcomp=0.65 / qpmin=0 / qpmax=69 / qpstep=4 / vbv_maxrate=62500 / vbv_bufsize=78125 / crf_max=0.0 / nal_hrd=none / filler=0 / ip_ratio=1.30 / pb_ratio=1.20 / aq=1:0.60
Language : English
Default : Yes
Forced : No
Matrix coefficients : BT.709
_STATISTICS_WRITING_APP : mkvmerge v7.1.0 ('Good Love') 64bit built on Jul 27 2014 13:06:55
_STATISTICS_WRITING_DATE_UTC : 2015-04-11 07:44:14
_STATISTICS_TAGS : BPS DURATION NUMBER_OF_FRAMES NUMBER_OF_BYTES
DURATION : 01:27:58.417000000
NUMBER_OF_FRAMES : 126682
NUMBER_OF_BYTES : 3015587942
Audio #1
ID : 2
Format : AC-3
Format/Info : Audio Coding 3
Mode extension : CM (complete main)
Format settings, Endianness : Big
Codec ID : A_AC3
Duration : 1h 28mn
Bit rate mode : Constant
Bit rate : 192 Kbps
Channel(s) : 2 channels
Channel positions : Front: L R
Sampling rate : 48.0 KHz
Bit depth : 16 bits
Compression mode : Lossy
Stream size : 121 MiB (4%)
Title : Zinko
Language : Russian
Default : Yes
Forced : No
Audio #2
ID : 3
Format : AC-3
Format/Info : Audio Coding 3
Mode extension : CM (complete main)
Format settings, Endianness : Big
Codec ID : A_AC3
Duration : 1h 28mn
Bit rate mode : Constant
Bit rate : 640 Kbps
Channel(s) : 6 channels
Channel positions : Front: L C R, Side: L R, LFE
Sampling rate : 48.0 KHz
Bit depth : 16 bits
Compression mode : Lossy
Stream size : 403 MiB (12%)
Language : English
Default : No
Forced : No
Text
ID : 4
Format : UTF-8
Codec ID : S_TEXT/UTF8
Codec ID/Info : UTF-8 Plain Text
Language : English
Default : No
Forced : No
Menu
00:00:00.000 : en:00:00:00.000
00:05:49.708 : en:00:05:49.708
00:12:19.208 : en:00:12:19.208
00:18:19.667 : en:00:18:19.667
00:25:26.042 : en:00:25:26.042
00:31:09.125 : en:00:31:09.125
00:36:07.208 : en:00:36:07.208
00:44:28.833 : en:00:44:28.833
00:51:02.000 : en:00:51:02.000
00:57:44.667 : en:00:57:44.667
01:04:43.625 : en:01:04:43.625
01:11:48.292 : en:01:11:48.292
01:16:53.750 : en:01:16:53.750
01:24:38.833 : en:01:24:38.833

Скриншоты

-
[Профиль] [ЛС]
Кто просматривает тему:

Показать сообщения:    

Текущее время: Сегодня 23:29

Часовой пояс: GMT



Вы не можете начинать темы
Вы не можете отвечать на сообщения
Вы не можете редактировать свои сообщения
Вы не можете удалять свои сообщения
Вы не можете голосовать в опросах
Вы не можете прикреплять файлы к сообщениям
Вы не можете скачивать файлы