Я плюю на ваши могилы 3 / I Spit on Your Grave 3 (2015) BDRip 720p | iTunes

 
Автор Сообщение

достали все ®

Пол:

Стаж: 1 год 8 месяцев

Сообщений: 6565



Награды: 12 (Подробнее)

Mega Seeder 1 (Количество: 1) Mega Seeder 5 (Количество: 1) Mega Seeder 2 (Количество: 1)
Торрент-статистика

Создавать темы 23-Окт-2015 02:51

[Цитировать]

Информация о фильме
Название: Я плюю на ваши могилы 3
Оригинальное название: I Spit on Your Grave 3
Год выхода: 2015
Жанр: триллер, ужасы
Режиссер: Р.Д. Браунштейн
В ролях: Сара Батлер, Гэбриел Хоган, Даг МакКиэн, Карен Страссман, Дженнифер Лэндон, Кори Крэйг, Лони Перрин, Джошуа Ковальчик, Бобби Рид, Хит МакГоф
О фильме: Фильм продолжает историю Дженнифер, которая работает в службе кризисной горячей линии. Серийный убийца использует службу для выбора новых жертв. Из-за прошлого Дженнифер она становится объектом внимания детективов, расследующих эти преступления. Но на самом ли деле она — тот убийца, которого они ищут?

Выпущено: США / Cinetel Films
Продолжительность: 01:31:31
Озвучивание: Профессиональное (многоголосое) [iTunes]
Файл
Формат: MKV
Качество: BDRip 720p
Видео: MPEG-4 AVC, 5471 kb/s, 1280x534
Аудио: Russian: AC3, 384 kb/s (6 ch) / English: AC3, 640 kb/s (6 ch)
Субтитры: English

MI

Format : Matroska
Format version : Version 4 / Version 2
File size : 4.28 GiB
Duration : 1h 32mn
Overall bit rate : 6 627 Kbps
Encoded date : UTC 2015-10-22 18:43:36
Writing application : mkvmerge v8.3.0 ('Over the Horizon') 64bit
Writing library : libebml v1.3.1 + libmatroska v1.4.2
DURATION : 01:31:29.408000000
NUMBER_OF_FRAMES : 171544
NUMBER_OF_BYTES : 263491584
_STATISTICS_WRITING_APP : mkvmerge v8.3.0 ('Over the Horizon') 64bit
_STATISTICS_WRITING_DATE_UTC : 2015-10-22 18:43:36
_STATISTICS_TAGS : BPS DURATION NUMBER_OF_FRAMES NUMBER_OF_BYTES
Video
ID : 1
Format : AVC
Format/Info : Advanced Video Codec
Format profile : High@L4.1
Format settings, CABAC : Yes
Format settings, ReFrames : 12 frames
Codec ID : V_MPEG4/ISO/AVC
Duration : 1h 32mn
Bit rate : 5 471 Kbps
Width : 1 280 pixels
Height : 534 pixels
Display aspect ratio : 2.40:1
Frame rate mode : Constant
Frame rate : 23.976 fps
Color space : YUV
Chroma subsampling : 4:2:0
Bit depth : 8 bits
Scan type : Progressive
Bits/(Pixel*Frame) : 0.334
Stream size : 3.54 GiB (83%)
Title : I Spit on Your Grave 3 2015 720p BluRay DD5.1 x264-TayTO
Writing library : x264 core 142 r2431+42 c69a006 tMod [8-bit@all X86_64]
Encoding settings : cabac=1 / ref=12 / deblock=1:-3:-3 / analyse=0x3:0x133 / me=umh / subme=11 / psy=1 / fade_compensate=0.00 / psy_rd=1.00:0.00 / mixed_ref=1 / me_range=32 / chroma_me=1 / trellis=2 / 8x8dct=1 / cqm=0 / deadzone=21,11 / fast_pskip=1 / chroma_qp_offset=-2 / threads=12 / lookahead_threads=2 / sliced_threads=0 / nr=0 / decimate=0 / interlaced=0 / bluray_compat=0 / constrained_intra=0 / fgo=0 / bframes=8 / b_pyramid=2 / b_adapt=2 / b_bias=0 / direct=3 / weightb=1 / open_gop=0 / weightp=2 / keyint=250 / keyint_min=23 / scenecut=40 / intra_refresh=0 / rc_lookahead=60 / rc=crf / mbtree=0 / crf=15.0000 / qcomp=0.65 / qpmin=0:0:0 / qpmax=69:69:69 / qpstep=4 / vbv_maxrate=62500 / vbv_bufsize=78125 / crf_max=0.0 / nal_hrd=none / filler=0 / ip_ratio=1.24 / pb_ratio=1.18 / aq=1:0.80 / aq-sensitivity=10.00 / aq-factor=1.00:1.00:1.00 / aq2=0 / aq3=0 / zones=24,382,crf=12/827,1248,crf=13/1578,1622,crf=13/2562,2679,crf=13/4182,4523,crf=13.5/63054,63196,crf=13/64242,68068,crf=13.5/75637,84497,crf=14/101151,104763,crf=14.5/114672,115630,crf=14.5/125850,131664,crf=21
Language : English
Default : Yes
Forced : No
Color range : Limited
Matrix coefficients : BT.709
DURATION : 01:31:31.528000000
NUMBER_OF_FRAMES : 131665
NUMBER_OF_BYTES : 3891276510
_STATISTICS_WRITING_APP : mkvmerge v8.3.0 ('Over the Horizon') 64bit
_STATISTICS_WRITING_DATE_UTC : 2015-10-22 18:43:36
_STATISTICS_TAGS : BPS DURATION NUMBER_OF_FRAMES NUMBER_OF_BYTES
Audio #1
ID : 2
Format : AC-3
Format/Info : Audio Coding 3
Mode extension : CM (complete main)
Format settings, Endianness : Big
Codec ID : A_AC3
Duration : 1h 32mn
Bit rate mode : Constant
Bit rate : 384 Kbps
Channel(s) : 6 channels
Channel positions : Front: L C R, Side: L R, LFE
Sampling rate : 48.0 KHz
Bit depth : 16 bits
Compression mode : Lossy
Stream size : 254 MiB (6%)
Language : Russian
Default : Yes
Forced : No
Audio #2
ID : 3
Format : AC-3
Format/Info : Audio Coding 3
Mode extension : CM (complete main)
Format settings, Endianness : Big
Codec ID : A_AC3
Duration : 1h 32mn
Bit rate mode : Constant
Bit rate : 640 Kbps
Channel(s) : 6 channels
Channel positions : Front: L C R, Side: L R, LFE
Sampling rate : 48.0 KHz
Bit depth : 16 bits
Compression mode : Lossy
Stream size : 424 MiB (10%)
Language : English
Default : No
Forced : No
Text #1
ID : 4
Format : UTF-8
Codec ID : S_TEXT/UTF8
Codec ID/Info : UTF-8 Plain Text
Language : English
Default : No
Forced : No
Text #2
ID : 5
Format : UTF-8
Codec ID : S_TEXT/UTF8
Codec ID/Info : UTF-8 Plain Text
Title : SDH
Language : English
Default : No
Forced : No
Menu
00:00:00.000 : en:00:00:00.000
00:06:34.394 : en:00:06:34.394
00:14:42.048 : en:00:14:42.048
00:20:19.218 : en:00:20:19.218
00:28:29.541 : en:00:28:29.541
00:39:15.019 : en:00:39:15.019
00:47:19.045 : en:00:47:19.045
00:58:44.354 : en:00:58:44.354
01:08:09.752 : en:01:08:09.752
01:12:49.532 : en:01:12:49.532
01:18:53.729 : en:01:18:53.729
01:27:29.911 : en:01:27:29.911

Скриншоты



[Профиль] [ЛС]
Кто просматривает тему:

Показать сообщения:    

Текущее время: Сегодня 20:10

Часовой пояс: GMT



Вы не можете начинать темы
Вы не можете отвечать на сообщения
Вы не можете редактировать свои сообщения
Вы не можете удалять свои сообщения
Вы не можете голосовать в опросах
Вы не можете прикреплять файлы к сообщениям
Вы не можете скачивать файлы