Я плюю на ваши могилы / I Spit on Your Grave (2010) BDRip 720p by msltel | D, A | Расширенная версия, Open Matte

 
Автор Сообщение

sergej644 ®

Пол:

Стаж: 4 года 11 месяцев

Сообщений: 6046

Откуда: Soviet Union



Награды: Нет

Торрент-статистика

Создавать темы 08-Фев-2015 13:12

[Цитировать]

Название: Я плюю нa ваши могилы
Оригинальное название: I Spit on Your Grave
Год выпуска: 2010
Жанр: Ужасы, триллер, криминал
Выпущено: США, Anchor Bay Films, Cinetel Films, Family of the Year Productions
Режиссер: Стивен Р. Монро
В ролях: Сара Батлер, Джефф Брэнсон, Эндрю Ховард, Дэниел Фрэнзиси, Родни Истман, Чад Линдберг, Трейси Уолтер, Молли Миллиган, Саксон Шарбино, Эмбер Даун Лэндрум
О фильме: Молодая писательница Дженнифер снимает домик в глухом лесу, чтобы в уединении написать роман. Но издатель не дождётся нового бестселлера… Четверо местных отморозков жестоко насилуют девушку и обрекают её на мучительную смерть. Но Дженнифер сумела выжить, и теперь её единственная цель — месть. И месть эта будет столь ужасной, что бывшие насильники проклянут тот день, когда встретили её впервые…

Качество: BDRip 720p
Видео: MPEG-4 AVC, 5487 kбит/с, 1280x720, 24 кадр/с
Аудио: Русский, английский (AC3, 6 ch, 448 Кбит/с)
Размер: 5.25 ГБ
Продолжительность: 01:47:56
Перевод: Дублированный (Blu-ray), авторский (Денис Строев)
Субтитры: Русские, английские
Имеются поименованные главы/чаптеры.

MediaInfo + Лог х264

Общее
Уникальный идентификатор : 200316711455184043012274472950749159837 (0x96B39865455B3B818BF081D5D76B619D)
Полное имя : D:VideoJa pljuju na vashi mogily.Unrated.Open Matte.2010.BDRip.720p.mkv
Формат : Matroska
Версия формата : Version 4 / Version 2
Размер файла : 5,25 Гбайт
Продолжительность : 1 ч. 47 м.
Общий поток : 6970 Кбит/сек
Дата кодирования : UTC 2014-09-17 01:43:40
Программа кодирования : mkvmerge v6.9.1 ('Blue Panther') 64bit built on Apr 18 2014 18:23:38
Библиотека кодирования : libebml v1.3.0 + libmatroska v1.4.1
Видео
Идентификатор : 1
Формат : AVC
Формат/Информация : Advanced Video Codec
Профиль формата : High@L4.1
Параметр CABAC формата : Да
Параметр ReFrames формата : 9 кадров
Идентификатор кодека : V_MPEG4/ISO/AVC
Продолжительность : 1 ч. 47 м.
Битрейт : 5487 Кбит/сек
Ширина : 1280 пикселей
Высота : 720 пикселей
Соотношение сторон : 16:9
Режим частоты кадров : Постоянный
Частота кадров : 24,000 кадра/сек
Цветовое пространство : YUV
Субдискретизация насыщенности : 4:2:0
Битовая глубина : 8 бит
Тип развёртки : Прогрессивная
Бит/(Пиксели*Кадры) : 0.248
Размер потока : 4,14 Гбайт (79%)
Заголовок : BDRip -- STarankov
Библиотека кодирования : x264 core 142 r2431 ac76440
Настройки программы : cabac=1 / ref=9 / deblock=1:-1:-1 / analyse=0x3:0x113 / me=umh / subme=10 / psy=1 / psy_rd=1.00:0.15 / mixed_ref=1 / me_range=32 / chroma_me=1 / trellis=2 / 8x8dct=1 / cqm=0 / deadzone=21,11 / fast_pskip=0 / chroma_qp_offset=-3 / threads=6 / lookahead_threads=1 / sliced_threads=0 / nr=0 / decimate=1 / interlaced=0 / bluray_compat=0 / constrained_intra=0 / bframes=8 / b_pyramid=2 / b_adapt=2 / b_bias=0 / direct=1 / weightb=1 / open_gop=0 / weightp=2 / keyint=230 / keyint_min=23 / scenecut=40 / intra_refresh=0 / rc_lookahead=40 / rc=crf / mbtree=0 / crf=17.0 / qcomp=0.60 / qpmin=0 / qpmax=69 / qpstep=4 / vbv_maxrate=40000 / vbv_bufsize=50000 / crf_max=0.0 / nal_hrd=none / filler=0 / ip_ratio=1.40 / pb_ratio=1.30 / aq=1:1.00
Язык : English
Default : Да
Forced : Нет
Аудио #1
Идентификатор : 2
Формат : AC-3
Формат/Информация : Audio Coding 3
Расширение режима : CM (complete main)
Параметр Endianness формата : Big
Идентификатор кодека : A_AC3
Продолжительность : 1 ч. 47 м.
Вид битрейта : Постоянный
Битрейт : 448 Кбит/сек
Каналы : 6 каналов
Расположение каналов : Front: L C R, Side: L R, LFE
Частота : 48,0 КГц
Битовая глубина : 16 бит
Метод сжатия : С потерями
Размер потока : 346 Мбайт (6%)
Заголовок : DUB (Blu-ray)
Язык : Russian
Default : Да
Forced : Нет
Аудио #2
Идентификатор : 3
Формат : AC-3
Формат/Информация : Audio Coding 3
Расширение режима : CM (complete main)
Параметр Endianness формата : Big
Идентификатор кодека : A_AC3
Продолжительность : 1 ч. 47 м.
Вид битрейта : Постоянный
Битрейт : 448 Кбит/сек
Каналы : 6 каналов
Расположение каналов : Front: L C R, Side: L R, LFE
Частота : 48,0 КГц
Битовая глубина : 16 бит
Метод сжатия : С потерями
Размер потока : 346 Мбайт (6%)
Заголовок : VO (Денис Строев, любительский)
Язык : Russian
Default : Нет
Forced : Нет
Аудио #3
Идентификатор : 4
Формат : AC-3
Формат/Информация : Audio Coding 3
Расширение режима : CM (complete main)
Параметр Endianness формата : Big
Идентификатор кодека : A_AC3
Продолжительность : 1 ч. 47 м.
Вид битрейта : Постоянный
Битрейт : 448 Кбит/сек
Каналы : 6 каналов
Расположение каналов : Front: L C R, Side: L R, LFE
Частота : 48,0 КГц
Битовая глубина : 16 бит
Метод сжатия : С потерями
Размер потока : 346 Мбайт (6%)
Заголовок : Original
Язык : English
Default : Нет
Forced : Нет
Текст #1
Идентификатор : 5
Формат : UTF-8
Идентификатор кодека : S_TEXT/UTF8
Идентификатор кодека/Информация : UTF-8 Plain Text
Заголовок : русский
Язык : Russian
Default : Нет
Forced : Нет
Текст #2
Идентификатор : 6
Формат : UTF-8
Идентификатор кодека : S_TEXT/UTF8
Идентификатор кодека/Информация : UTF-8 Plain Text
Заголовок : английский
Default : Нет
Forced : Нет
Меню
00:00:00.000 : en:Main Title/Peace And Quiet
00:10:15.043 : en:Un-getable
00:17:34.023 : en:Prettyh Little Showhorse
00:31:42.913 : en:"It's Okay... I'm A Sheriff"
00:38:15.972 : en:The Rape of Jennifer Hills
00:46:14.825 : en:Final Act of Defiance
00:57:10.397 : en:Rising Tensions
01:04:36.050 : en:Loose Ends
01:13:06.644 : en:Just Not Good Enough
01:17:14.683 : en:Quite a Shot
01:30:13.002 : en:Day Of The Woman
01:44:00.913 : en:End Credits
---[Information] [16.09.2014 19:06:34] raw [info]: 1280x720p 1:1 @ 24/1 fps (cfr)
---[Information] [16.09.2014 19:06:34] x264 [info]: using SAR=1/1
---[Information] [16.09.2014 19:06:34] x264 [info]: using cpu capabilities: MMX2 SSE2Fast SSSE3 SSE4.2
---[Information] [16.09.2014 19:06:34] x264 [info]: profile High, level 4.1
---[Information] [17.09.2014 4:17:16] x264 [info]: frame I:1446 Avg QP:14.79 size:128233
---[Information] [17.09.2014 4:17:16] x264 [info]: frame P:34203 Avg QP:16.04 size: 53279
---[Information] [17.09.2014 4:17:16] x264 [info]: frame B:119775 Avg QP:17.63 size: 21242
---[Information] [17.09.2014 4:17:16] x264 [info]: consecutive B-frames: 2.7% 2.8% 9.2% 17.3% 17.3% 37.9% 6.6% 2.6% 3.7%
---[Information] [17.09.2014 4:17:16] x264 [info]: mb I I16..4: 20.7% 61.7% 17.7%
---[Information] [17.09.2014 4:17:16] x264 [info]: mb P I16..4: 4.1% 19.4% 2.6% P16..4: 29.4% 23.6% 13.0% 0.0% 0.0% skip: 7.9%
---[Information] [17.09.2014 4:17:16] x264 [info]: mb B I16..4: 0.2% 2.1% 0.3% B16..8: 37.5% 15.5% 4.4% direct: 7.9% skip:32.2% L0:44.3% L1:42.8% BI:12.9%
---[Information] [17.09.2014 4:17:16] x264 [info]: 8x8 transform intra:74.5% inter:51.4%
---[Information] [17.09.2014 4:17:16] x264 [info]: coded y,uvDC,uvAC intra: 91.1% 71.7% 43.0% inter: 34.9% 16.2% 1.4%
---[Information] [17.09.2014 4:17:16] x264 [info]: i16 v,h,dc,p: 20% 5% 33% 42%
---[Information] [17.09.2014 4:17:16] x264 [info]: i8 v,h,dc,ddl,ddr,vr,hd,vl,hu: 15% 11% 14% 7% 10% 11% 10% 11% 10%
---[Information] [17.09.2014 4:17:16] x264 [info]: i4 v,h,dc,ddl,ddr,vr,hd,vl,hu: 11% 10% 5% 9% 15% 15% 13% 12% 11%
---[Information] [17.09.2014 4:17:16] x264 [info]: i8c dc,h,v,p: 46% 24% 19% 11%
---[Information] [17.09.2014 4:17:16] x264 [info]: Weighted P-Frames: Y:3.3% UV:1.4%
---[Information] [17.09.2014 4:17:16] x264 [info]: ref P L0: 47.9% 12.5% 17.0% 6.0% 5.4% 3.5% 3.4% 1.9% 2.1% 0.3% 0.0%
---[Information] [17.09.2014 4:17:16] x264 [info]: ref B L0: 71.5% 12.6% 6.3% 3.5% 2.5% 2.1% 1.1% 0.4%
---[Information] [17.09.2014 4:17:16] x264 [info]: ref B L1: 92.2% 7.8%
---[Information] [17.09.2014 4:17:16] x264 [info]: kb/s:5623.27
---[Information] [17.09.2014 4:17:16] encoded 155424 frames, 4.70 fps, 5623.27 kb/s
---[Information] [17.09.2014 4:17:16] avs [info]: AviSynth 2.60, build:May 25 2011 [19:58:41]
---[Information] [17.09.2014 4:17:16] avs [info]: Video colorspace: YV12
---[Information] [17.09.2014 4:17:16] avs [info]: Video resolution: 1280x720
---[Information] [17.09.2014 4:17:16] avs [info]: Video framerate: 24/1
---[Information] [17.09.2014 4:17:16] avs [info]: Video framecount: 155424
---[Information] [17.09.2014 4:17:16] avs4x264 [info]: "x264_64" - --level 4.1 --tune film --crf 17.0 --keyint 230 --bframes 8 --b-adapt 2 --ref 9 --vbv-bufsize 50000 --vbv-maxrate 40000 --no-mbtree --merange 32 --me umh --subme 10 --trellis 2 --no-fast-pskip --sar 1:1 --output "D:RipJa pljuju na vashi mogily.2010.BDRipJa pljuju na vashi mogily.Unrated.Open Matte.2010.BDRip.720p.mkv" --frames 155424 --fps 24/1 --input-res 1280x720 --input-csp i420
--[Information] [17.09.2014 4:17:17] Final statistics
---[Information] [17.09.2014 4:17:17] Constant Quality Mode: Quality 17 computed...
---[Information] [17.09.2014 4:17:17] Video Bitrate Obtained (approximate): 5624 kbit/s
--[Information] [17.09.2014 4:17:17] MediaInfo
---[Information] [17.09.2014 4:17:17] File: D:RipJa pljuju na vashi mogily.2010.BDRipJa pljuju na vashi mogily.Unrated.Open Matte.2010.BDRip.720p.mkv

Скриншоты

[Профиль] [ЛС]
Кто просматривает тему:

Показать сообщения:    

Текущее время: Сегодня 03:24

Часовой пояс: GMT



Вы не можете начинать темы
Вы не можете отвечать на сообщения
Вы не можете редактировать свои сообщения
Вы не можете удалять свои сообщения
Вы не можете голосовать в опросах
Вы не можете прикреплять файлы к сообщениям
Вы не можете скачивать файлы