Я плюю на ваши могилы / I Spit on Your Grave (Стивен Р. Монро / Steven R. Monroe) [2010, США, ужасы, триллер, криминал, BDRip-AVC] [Open Matte] [Расширенная версия / Unrated Version] Dub + DVO (Voiz & Lela) + VO (Строев) + Orig + Sub (Rus, Eng)

 
Автор Сообщение

painkiller ®

Стаж: 2 года 3 месяца

Сообщений: 582



Награды: Нет

Торрент-статистика

Создавать темы 16-Авг-2014 14:45

[Цитировать]

Я плюю на ваши могилы / I Spit on Your Grave
[Расширенная версия / Unrated Version]
- Год выпуска: 2010
Страна: США
Жанр: Ужасы, триллер, криминал-Продолжительность: 1:47:56
Перевод №1: Профессиональный (полное дублирование)
Перевод №2: Любительский (двухголосый закадровый) [Voiz & Lela] {отдельно}
Перевод №3: Одноголосый закадровый [Д. Строев aka.
Оригинальная аудиодорожка: Английская
Cубтитры: Русские, английские {*.srt}
Навигация по главам: Присутствует-Режиссер: Стивен Р. Монро / Steven R. Monroe
В ролях: Сара Батлер, Джефф Брэнсон, Эндрю Ховард, Дэниел Фрэнзиси, Родни Истман, Чэд Линдберг, Трейси Уолтер, Молли Миллиган, Саксон Шарбино, Эмбер Даун Лэндрум и др.-Описание: Молодая писательница Дженнифер снимает домик в глухом лесу, чтобы в уединении написать роман. Но издатель не дождется нового бестселлера… Четверо местных отморозков жестоко насилуют девушку и обрекают ее на мучительную смерть. Но Дженнифер сумела выжить и теперь ее единственная цель — месть. И месть эта будет столь ужасной, что бывшие насильники проклянут тот день, когда встретили ее впервые…-Мировая премьера: 8 октября, 2010 г. | Премьера в России: 27 января, 2011 г.
Бюджет: $1 500 000
Сборы в США: $93 051 | Сборы в Мире: + $479 758 = $572 809 | Сборы в России: $126 778
Рейтинг MPAA: R (Лицам до 17 лет обязательно присутствие взрослого!)

Качество видео: BDRip-AVC
Исходник: BDRemux 1080p [Open Matte]
Формат видео: MKV
Видео: 1152x648 (16:9), 24 fps, x264 ~2896 kbps avg, 0.158 bit/pixel
Аудио#1: 48 kHz, AC3, 3/2 (L,C,R,l,r) + LFE ch, ~448 kbps [Dub]
Аудио#2: 48 kHz, AC3, 3/2 (L,C,R,l,r) + LFE ch, ~448 kbps [Original]
Аудио#3: 48 kHz, AC3, 3/2 (L,C,R,l,r) + LFE ch, ~448 kbps [DVO] {отдельно}
Аудио#4: 48 kHz, AC3, 3/2 (L,C,R,l,r) + LFE ch, ~448 kbps [VO] {отдельно}
-

MediaInfo

General
Unique ID                                : 224315018339222827765195468038461059494 (0xA8C18046BF79F9ADA87B3AB5F01DF1A6)
Complete name                            : C:\Я плюю на ваши могилы.2010.Blu-Ray.Remux.(1080p)\Ya_pljuju_na_vashi_mogili.2010.BDRip-tRuAVC.mkv
Format                                   : Matroska
Format version                           : Version 2
File size                                : 2.86 GiB
Duration                                 : 1h 47mn
Overall bit rate                         : 3 794 Kbps
Movie name                               : I Spit on Your Grave (2010) [Unrated Version] - BDRip by Juvelir
Encoded date                             : UTC 2014-01-19 20:50:04
Writing application                      : mkvmerge v3.4.0 ('Rapunzel') сборка от May 15 2010 09:38:20
Writing library                          : libebml v0.8.0 + libmatroska v0.9.0
Attachment                               : Yes
Video
ID                                       : 1
Format                                   : AVC
Format/Info                              : Advanced Video Codec
Format profile                           : High@L4.1
Format settings, CABAC                   : Yes
Format settings, ReFrames                : 10 frames
Codec ID                                 : V_MPEG4/ISO/AVC
Duration                                 : 1h 47mn
Bit rate                                 : 2 822 Kbps
Width                                    : 1 152 pixels
Height                                   : 648 pixels
Display aspect ratio                     : 16:9
Frame rate mode                          : Constant
Frame rate                               : 24.000 fps
Color space                              : YUV
Chroma subsampling                       : 4:2:0
Bit depth                                : 8 bits
Scan type                                : Progressive
Bits/(Pixel*Frame)                       : 0.158
Stream size                              : 2.13 GiB (74%)
Writing library                          : x264 core 140 r2377kMod 1ca7bb9
Encoding settings                        : cabac=1 / ref=10 / deblock=1:-2:-2 / analyse=0x3:0x133 / me=umh / subme=11 / psy=1 / fade_compensate=0.00 / psy_rd=0.95:0.01 / mixed_ref=1 / me_range=32 / chroma_me=1 / trellis=2 / 8x8dct=1 / cqm=0 / deadzone=21,11 / fast_pskip=0 / chroma_qp_offset=-3 / threads=6 / lookahead_threads=1 / sliced_threads=0 / nr=0 / decimate=1 / interlaced=0 / bluray_compat=0 / constrained_intra=0 / fgo=0 / bframes=13 / b_pyramid=2 / b_adapt=2 / b_bias=0 / direct=3 / weightb=1 / open_gop=0 / weightp=2 / keyint=240 / keyint_min=24 / scenecut=40 / intra_refresh=0 / rc_lookahead=60 / rc=crf / mbtree=0 / crf=18.5000 / qcomp=0.60 / qpmin=0 / qpmax=69 / qpstep=4 / vbv_maxrate=50000 / vbv_bufsize=62500 / crf_max=0.0 / nal_hrd=none / filler=0 / ip_ratio=1.35 / pb_ratio=1.25 / aq=3:0.90
Language                                 : English
Default                                  : Yes
Forced                                   : Yes
Color primaries                          : BT.709
Transfer characteristics                 : BT.709
Matrix coefficients                      : BT.709
Audio #1
ID                                       : 2
Format                                   : AC-3
Format/Info                              : Audio Coding 3
Mode extension                           : CM (complete main)
Format settings, Endianness              : Big
Codec ID                                 : A_AC3
Duration                                 : 1h 47mn
Bit rate mode                            : Constant
Bit rate                                 : 448 Kbps
Channel count                            : 6 channels
Channel positions                        : Front: L C R, Side: L R, LFE
Sampling rate                            : 48.0 KHz
Bit depth                                : 16 bits
Compression mode                         : Lossy
Stream size                              : 346 MiB (12%)
Title                                    : Dub
Language                                 : Russian
Default                                  : Yes
Forced                                   : No
Audio #2
ID                                       : 3
Format                                   : AC-3
Format/Info                              : Audio Coding 3
Mode extension                           : CM (complete main)
Format settings, Endianness              : Big
Codec ID                                 : A_AC3
Duration                                 : 1h 47mn
Bit rate mode                            : Constant
Bit rate                                 : 448 Kbps
Channel count                            : 6 channels
Channel positions                        : Front: L C R, Side: L R, LFE
Sampling rate                            : 48.0 KHz
Bit depth                                : 16 bits
Compression mode                         : Lossy
Stream size                              : 346 MiB (12%)
Title                                    : Original
Language                                 : English
Default                                  : No
Forced                                   : No
Text #1
ID                                       : 4
Format                                   : UTF-8
Codec ID                                 : S_TEXT/UTF8
Codec ID/Info                            : UTF-8 Plain Text
Language                                 : Russian
Default                                  : No
Forced                                   : No
Text #2
ID                                       : 5
Format                                   : UTF-8
Codec ID                                 : S_TEXT/UTF8
Codec ID/Info                            : UTF-8 Plain Text
Language                                 : English
Default                                  : No
Forced                                   : No
Menu
00:00:00.000                             : en:Main Title/Peace And Quiet
00:10:15.043                             : en:Un-getable
00:17:34.023                             : en:Prettyh Little Showhorse
00:31:42.913                             : en:"It's Okay... I'm A Sheriff"
00:38:15.972                             : en:The Rape of Jennifer Hills
00:46:14.825                             : en:Final Act of Defiance
00:57:10.397                             : en:Rising Tensions
01:04:36.050                             : en:Loose Ends
01:13:06.644                             : en:Just Not Good Enough
01:17:14.683                             : en:Quite a Shot
01:30:13.002                             : en:Day Of The Woman
01:44:00.913                             : en:End Credits[/color]
General
Complete name                            : C:\Я плюю на ваши могилы.2010.Blu-Ray.Remux.(1080p)\Ya_pljuju_na_vashi_mogili.2010.BDRip-tRuAVC.DVO.ac3
Format                                   : AC-3
Format/Info                              : Audio Coding 3
File size                                : 346 MiB
Duration                                 : 1h 47mn
Overall bit rate mode                    : Constant
Overall bit rate                         : 448 Kbps
Audio
Format                                   : AC-3
Format/Info                              : Audio Coding 3
Mode extension                           : CM (complete main)
Format settings, Endianness              : Big
Duration                                 : 1h 47mn
Bit rate mode                            : Constant
Bit rate                                 : 448 Kbps
Channel count                            : 6 channels
Channel positions                        : Front: L C R, Side: L R, LFE
Sampling rate                            : 48.0 KHz
Bit depth                                : 16 bits
Compression mode                         : Lossy
Stream size                              : 346 MiB (100%)[/color]
Код:[color=darkblue]General
Complete name                            : C:\Я плюю на ваши могилы.2010.Blu-Ray.Remux.(1080p)\Ya_pljuju_na_vashi_mogili.2010.BDRip-tRuAVC.VO.ac3
Format                                   : AC-3
Format/Info                              : Audio Coding 3
File size                                : 346 MiB
Duration                                 : 1h 47mn
Overall bit rate mode                    : Constant
Overall bit rate                         : 448 Kbps
Audio
Format                                   : AC-3
Format/Info                              : Audio Coding 3
Mode extension                           : CM (complete main)
Format settings, Endianness              : Big
Duration                                 : 1h 47mn
Bit rate mode                            : Constant
Bit rate                                 : 448 Kbps
Channel count                            : 6 channels
Channel positions                        : Front: L C R, Side: L R, LFE
Sampling rate                            : 48.0 KHz
Bit depth                                : 16 bits
Compression mode                         : Lossy
Stream size                              : 346 MiB (100%)

x264

x264 [info]: frame I:1305  Avg QP:16.36  size: 79955  PSNR Mean Y:47.37 U:52.90 V:53.56 Avg:48.53 Global:47.34
x264 [info]: frame P:33617 Avg QP:18.02  size: 29071  PSNR Mean Y:46.45 U:52.69 V:53.38 Avg:47.66 Global:46.26
x264 [info]: frame B:120501 Avg QP:19.85  size: 10476  PSNR Mean Y:46.34 U:53.31 V:54.06 Avg:47.60 Global:45.81
x264 [info]: consecutive B-frames:  2.6%  2.6%  8.8% 17.8% 17.9% 35.0%  5.7%  1.7%  1.7%  1.6%  1.0%  1.1%  0.9%  1.3%
x264 [info]: mb I  I16..4:  7.9% 78.3% 13.8%
x264 [info]: mb P  I16..4:  1.0% 13.2%  1.4%  P16..4: 31.2% 33.1% 10.6%  1.3%  0.1%    skip: 8.1%
x264 [info]: mb B  I16..4:  0.1%  1.5%  0.2%  B16..8: 35.5% 19.8%  2.7%  direct: 4.8%  skip:35.5%  L0:43.2% L1:46.5% BI:10.4%
x264 [info]: 8x8 transform intra:83.6% inter:67.9%
x264 [info]: direct mvs  spatial:100.0% temporal:0.0%
x264 [info]: coded y,uvDC,uvAC intra: 86.6% 64.7% 30.4% inter: 23.4% 10.6% 0.5%
x264 [info]: i16 v,h,dc,p: 28% 11%  5% 56%
x264 [info]: i8 v,h,dc,ddl,ddr,vr,hd,vl,hu: 12%  8%  6%  9% 13% 14% 13% 13% 12%
x264 [info]: i4 v,h,dc,ddl,ddr,vr,hd,vl,hu: 14%  9%  7%  8% 15% 15% 12% 10% 10%
x264 [info]: i8c dc,h,v,p: 30% 32% 21% 17%
x264 [info]: Weighted P-Frames: Y:3.9% UV:2.1%
x264 [info]: ref P L0: 49.7% 11.7% 16.2%  5.9%  4.8%  3.4%  3.0%  1.8%  1.7%  1.6%  0.3%  0.0%
x264 [info]: ref B L0: 75.7% 10.9%  5.3%  2.7%  1.9%  1.5%  1.2%  0.6%  0.3%
x264 [info]: ref B L1: 93.1%  6.9%
x264 [info]: SSIM Mean Y:0.9849311 (18.219db)
x264 [info]: PSNR Mean Y:46.374 U:53.173 V:53.912 Avg:47.625 Global:45.915 kb/s:2895.64
-

скриншоты





Доп. информация

Римейк фильма «День женщины»
Отличия расширенной версии - http://www.movie-censorship.com/report.php?ID=335069
Сравнение трансферов - http://screenshotcomparison.com/comparison/58360-
--
[Профиль] [ЛС]

Создавать темы 06-Авг-2015 23:09 (спустя 11 месяцев 21 день)

Топик был перенесен из форума Фильмы до 2014 года в форум Фильмы до 2012 года
sergej644
 

Создавать темы 12-Июн-2016 07:54 (спустя 1 год 9 месяцев)

Топик был перенесен из форума Фильмы 2011 года в форум Фильмы 2010 года
Russian Mafia
 
Кто просматривает тему:

Показать сообщения:    

Текущее время: Сегодня 19:33

Часовой пояс: GMT



Вы не можете начинать темы
Вы не можете отвечать на сообщения
Вы не можете редактировать свои сообщения
Вы не можете удалять свои сообщения
Вы не можете голосовать в опросах
Вы не можете прикреплять файлы к сообщениям
Вы не можете скачивать файлы