Я плюю на ваши могилы / I Spit on Your Grave (Стивен Р. Монро / Steven R. Monroe) [2010, США, Ужасы, триллер, криминал, HDRip] [Unrated Cut] Dub

 
Автор Сообщение

reversefile ®

Пол:

Стаж: 4 года 5 месяцев

Сообщений: 842

Откуда: ReverseFile.org



Награды: Нет

Торрент-статистика

Создавать темы 11-Авг-2014 10:46

[Цитировать]

Я плюю на ваши могилы / I Spit on Your Grave [Open Matte] [Unrated Cut]
Страна: США
Жанр: Ужасы, триллер, криминал
Год выпуска: 2010
Продолжительность: 01:47:56
Перевод: Профессиональный (дублированный) Лицензия
Cубтитры: нет
Оригинальная аудиодорожка: нет
Режиссер: Стивен Р. Монро / Steven R. Monroe
В ролях: Сара Батлер, Джефф Брэнсон, Эндрю Ховард, Дэниел Фрэнзиси, Родни Истман, Чэд Линдберг, Трейси Уолтер, Молли Миллиган, Саксон Шарбино, Эмбер Даун Лэндрум и др.
Описание: Молодая писательница Дженнифер снимает домик в глухом лесу, чтобы в уединении написать роман. Но издатель не дождется нового бестселлера… Четверо местных отморозков жестоко насилуют девушку и обрекают ее на мучительную смерть. Но Дженнифер сумела выжить и теперь ее единственная цель — месть. И месть эта будет столь ужасной, что бывшие насильники проклянут тот день, когда встретили ее впервые…
Сэмпл: http://multi-up.com/964950
Качество видео: HDRip BDRip 1080p [Open Matte] PublicHD
Формат видео: AVI
Видео: 624x336 (1.86:1), 24.000 fps, XviD build 73 ~832 kbps avg, 0.17 bit/pixel
Аудио: 48 kHz, MPEG Layer 3, 2 ch, ~128.00 kbps avg

MediaInfo

Общее
Полное имя                               : D:\Рипы выкладка [Deadmauvlad]\Рипы готовые\I.Spit.on.Your.Grave.2010.HDRip.Deadmauvlad.[Open.Matte.Version].avi
Формат                                   : AVI
Формат/Информация                        : Audio Video Interleave
Размер файла                             : 749 Мбайт
Продолжительность                        : 1 ч. 47 м.
Общий поток                              : 970 Кбит/сек
Название фильма                          : I.Spit.on.Your.Grave.2010.HDRip.Deadmauvlad
Режиссёр                                 : Deadmauvlad
Жанр                                     : Ужасы, Триллер , Драма
Программа кодирования                    : VirtualDubMod 1.5.10.3 | www.virtualdub-fr.org || (build 2550/release)
Формат оригинала/Имя                     : Фильм
Правообладатель                          : Deadmauvlad
Примечание                               : [Open.Matte.Version]
Видео
Идентификатор                            : 0
Формат                                   : MPEG-4 Visual
Профиль формата                          : Advanced Simple@L5
Параметр BVOP формата                    : 1
Параметр QPel формата                    : Нет
Параметр GMC формата                     : Без точки перехода
Параметр матрицы формата                 : Выборочная
Идентификатор кодека                     : XVID
Идентификатор кодека/Подсказка           : XviD
Продолжительность                        : 1 ч. 47 м.
Битрейт                                  : 833 Кбит/сек
Ширина                                   : 624 пикселя
Высота                                   : 336 пикселей
Соотношение сторон                       : 1,85:1
Частота кадров                           : 24,000 кадра/сек
Цветовое пространство                    : YUV
Субдискретизация насыщенности            : 4:2:0
Битовая глубина                          : 8 бит
Тип развёртки                            : Прогрессивная
Метод сжатия                             : С потерями
Бит/(Пиксели*Кадры)                      : 0.165
Размер потока                            : 643 Мбайт (86%)
Библиотека кодирования                   : XviD 73
Аудио
Идентификатор                            : 1
Формат                                   : MPEG Audio
Версия формата                           : Version 1
Профиль формата                          : Layer 3
Идентификатор кодека                     : 55
Идентификатор кодека/Подсказка           : MP3
Продолжительность                        : 1 ч. 47 м.
Вид битрейта                             : Постоянный
Битрейт                                  : 128 Кбит/сек
Каналы                                   : 2 канала
Частота                                  : 48,0 КГц
Метод сжатия                             : С потерями
Размер потока                            : 98,8 Мбайт (13%)
Выравнивание                             : Разделение по промежуткам
Продолжительность промежутка             : 42  мс. (1,00 видеокадр)
Время предзагрузки промежутка            : 500  мс.
Библиотека кодирования                   : LAME3.99r
Настройки программы                      : -m s -V 4 -q 2 -lowpass 17 -b 128

Скриншот c названием фильма

Скриншоты

--
[Профиль] [ЛС]

Создавать темы 06-Авг-2015 23:19 (спустя 11 месяцев 26 дней)

Топик был перенесен из форума Фильмы до 2014 года в форум Фильмы до 2012 года
sergej644
 

Создавать темы 12-Июн-2016 07:54 (спустя 1 год 10 месяцев)

Топик был перенесен из форума Фильмы 2011 года в форум Фильмы 2010 года
Russian Mafia
 
Кто просматривает тему:

Показать сообщения:    

Текущее время: Сегодня 06:29

Часовой пояс: GMT



Вы не можете начинать темы
Вы не можете отвечать на сообщения
Вы не можете редактировать свои сообщения
Вы не можете удалять свои сообщения
Вы не можете голосовать в опросах
Вы не можете прикреплять файлы к сообщениям
Вы не можете скачивать файлы