Я плюю на ваши могилы: Трилогия / I Spit on Your Grave: Trilogy (2010-2015) BDRip 720p | D, А, Р, L1, L2, L

 
Автор Сообщение

Russian Mafia ®

Пол:

Стаж: 1 год 8 месяцев

Сообщений: 4257



Награды: 10 (Подробнее)

Mega Seeder 2 (Количество: 1) За внесенный вклад в развитие сайта (Количество: 1) Top Releaser 5 (Количество: 1)
Торрент-статистика

Создавать темы 27-Май-2016 15:00

[Цитировать]

Я плюю на ваши могилы / I Spit on Your Grave / 2010

Я плюю на ваши могилы / I Spit on Your Grave
Страна: США
Производство: Family of the Year Productions, Cinetel Films, Anchor Bay Films
Год выпуска: 2010
Жанр: ужасы, триллер, криминал
Продолжительность: 01:47:56
Режиссер: Стивен Р. Монро
Авторы сценария: Адам Рокофф, Мейр Зарки
В ролях: Сара Батлер, Джефф Брэнсон, Эндрю Ховард, Дэниел Фрэнзиси, Родни Истман, Чэд Линдберг, Трейси Уолтер, Молли Миллиган
Описание: Молодая писательница Дженнифер снимает домик в глухом лесу, чтобы в уединении написать роман. Но издатель не дождется нового бестселлера… Четверо местных отморозков жестоко насилуют девушку и обрекают ее на мучительную смерть. Но Дженнифер сумела выжить и теперь ее единственная цель — месть. И месть эта будет столь ужасной, что бывшие насильники проклянут тот день, когда встретили ее впервые…

Перевод: Профессиональный (полное дублирование) + Авторский | Денис Строев
Субтитры: русские, английские-Качество: BDRip 720p
Формат: МКV
Видео кодек: AVC
Аудио кодек: АС3
Видео: 1280x720 (16:9), 24.000 fps, MPEG-4 AVC ~4 520 kbps avg, 0.204 bit/pixel
Аудио №1: 48.0 kHz, AC3 Dolby Digital, 3/2 (L,C,R,l,r) + LFE ch, ~640 kbps | DUB
Аудио №2: 48.0 kHz, AC3 Dolby Digital, 3/2 (L,C,R,l,r) + LFE ch, ~448 kbps | AVO
Аудио №3: 48.0 kHz, AC3 Dolby Digital, 3/2 (L,C,R,l,r) + LFE ch, ~640 kbps | ENG
Формат субтитров: UTF-8 Plain Text
Дата премьеры (мир): 1 мая 2010
релиз на DVD, Blu-Ray: 16 февраля 2011, «Кармен Видео»
Скриншоты

Media Info 1

Общее
Уникальный идентификатор : 185313042886456703677541485860955220724 (0x8B69FE6C2BB4BE6F98D13E47C5F5EAF4)
Полное имя : Ya.Pluyu.Na.Vashy.Mogily.2010.ITA-Tr.2xRus.Eng.BDRip.720p.-HELLYWOOD.mkv
Формат : Matroska
Версия формата : Version 4 / Version 2
Размер файла : 4,71 Гбайт
Длительность : 1 ч. 47 м.
Общий поток : 6250 Кбит/сек
Название фильма : I Spit on Your Grave (2010)
Дата кодирования : UTC 2016-05-18 05:46:41
Программа кодирования : mkvmerge v5.9.0 ('On The Loose') built on Dec 15 2012 16:39:58
Библиотека кодирования : libebml v1.3.0 + libmatroska v1.4.0
Видео
Идентификатор : 1
Формат : AVC
Формат/Информация : Advanced Video Кодек
Профиль формата : High@L4.1
Параметр CABAC формата : Да
Параметр ReFrames формата : 9 кадров
Идентификатор кодека : V_MPEG4/ISO/AVC
Длительность : 1 ч. 47 м.
Битрейт : 4520 Кбит/сек
Ширина : 1280 пикселей
Высота : 720 пикселей
Соотношение сторон : 16:9
Режим частоты кадров : Постоянный
Частота кадров : 24,000 кадра/сек
Цветовое пространство : YUV
Субдискретизация насыщенности : 4:2:0
Битовая глубина : 8 бит
Тип развёртки : Прогрессивная
Бит/(Пиксели*Кадры) : 0.204
Размер потока : 3,32 Гбайт (70%)
Заголовок : potroks
Библиотека кодирования : x264 core 130 r2273 b3065e6
Настройки программы : cabac=1 / ref=9 / deblock=1:-2:-2 / analyse=0x3:0x133 / me=umh / subme=11 / psy=1 / psy_rd=1.00:0.03 / mixed_ref=1 / me_range=48 / chroma_me=1 / trellis=2 / 8x8dct=1 / cqm=0 / deadzone=21,11 / fast_pskip=0 / chroma_qp_offset=-3 / threads=9 / lookahead_threads=8 / sliced_threads=0 / nr=0 / decimate=0 / interlaced=0 / bluray_compat=0 / constrained_intra=0 / bframes=11 / b_pyramid=2 / b_adapt=2 / b_bias=0 / direct=3 / weightb=1 / open_gop=0 / weightp=2 / keyint=250 / keyint_min=23 / scenecut=40 / intra_refresh=0 / rc_lookahead=60 / rc=2pass / mbtree=0 / bitrate=4520 / ratetol=1.0 / qcomp=0.70 / qpmin=0 / qpmax=69 / qpstep=4 / cplxblur=20.0 / qblur=0.5 / vbv_maxrate=50000 / vbv_bufsize=62500 / nal_hrd=none / ip_ratio=1.35 / pb_ratio=1.25 / aq=1:0.70
Язык : English
Default : Да
Forced : Нет
Аудио #1
Идентификатор : 2
Формат : AC-3
Формат/Информация : Audio Coding 3
Расширение режима : CM (complete main)
Параметр Endianness формата : Big
Идентификатор кодека : A_AC3
Длительность : 1 ч. 47 м.
Вид битрейта : Постоянный
Битрейт : 640 Кбит/сек
Каналы : 6 каналов
Расположение каналов : Front: L C R, Side: L R, LFE
Частота : 48,0 КГц
Частота кадров : 31,250 кадров/сек (1536 spf)
Метод сжатия : С потерями
Размер потока : 494 Мбайт (10%)
Заголовок : Dub | DD 5.1 @ 640 kbps - Blu-Ray RUS
Язык : Russian
Default : Да
Forced : Нет
Аудио #2
Идентификатор : 3
Формат : AC-3
Формат/Информация : Audio Coding 3
Расширение режима : CM (complete main)
Параметр Endianness формата : Big
Идентификатор кодека : A_AC3
Длительность : 1 ч. 47 м.
Вид битрейта : Постоянный
Битрейт : 448 Кбит/сек
Каналы : 6 каналов
Расположение каналов : Front: L C R, Side: L R, LFE
Частота : 48,0 КГц
Частота кадров : 31,250 кадров/сек (1536 spf)
Метод сжатия : С потерями
Размер потока : 346 Мбайт (7%)
Заголовок : AVO | DD 5.1 @ 448 kbps - D.Stroev [de}{ter]
Язык : Russian
Default : Нет
Forced : Нет
Аудио #3
Идентификатор : 4
Формат : AC-3
Формат/Информация : Audio Coding 3
Расширение режима : CM (complete main)
Параметр Endianness формата : Big
Идентификатор кодека : A_AC3
Длительность : 1 ч. 47 м.
Вид битрейта : Постоянный
Битрейт : 640 Кбит/сек
Каналы : 6 каналов
Расположение каналов : Front: L C R, Side: L R, LFE
Частота : 48,0 КГц
Частота кадров : 31,250 кадров/сек (1536 spf)
Метод сжатия : С потерями
Размер потока : 494 Мбайт (10%)
Заголовок : Original | DD 5.1 @ 640 kbps
Язык : English
Default : Нет
Forced : Нет
Текст #1
Идентификатор : 5
Формат : UTF-8
Идентификатор кодека : S_TEXT/UTF8
Идентификатор кодека/Информация : UTF-8 Plain Text
Язык : Russian
Default : Нет
Forced : Нет
Текст #2
Идентификатор : 6
Формат : UTF-8
Идентификатор кодека : S_TEXT/UTF8
Идентификатор кодека/Информация : UTF-8 Plain Text
Язык : English
Default : Нет
Forced : Нет
Меню
00:00:00.000 : en:(01)00:00:00:000
00:10:14.416 : en:(02)00:10:14:416
00:18:23.166 : en:(03)00:18:23:166
00:33:16.208 : en:(04)00:33:16:208
00:49:36.416 : en:(05)00:49:36:416
01:04:32.166 : en:(06)01:04:32:166
01:17:10.041 : en:(07)01:17:10:041
01:35:47.750 : en:(08)01:35:47:750

Я плюю на ваши могилы 2 / I Spit on Your Grave 2 / 2013

Я плюю на ваши могилы 2 / I Spit on Your Grave 2
Страна: США
Производство: Cinetel Films
Год выпуска: 2013
Жанр: ужасы, триллер, криминал
Продолжительность: 01:46:19
Режиссер: Стивен Р. Монро
Авторы сценария: Нил Элман, Томас Х. Фентон
В ролях: Джемма Даллендер, Джо Эбсолом, Явор Бахаров, Георг Златарев, Мэри Стокли, Валентин Пелка, Александр Алексеев, Питер Сильверлиф
Описание: Красавица Кэти только что переехала в Нью-Йорк, чтобы сделать карьеру модели. Но девичьи мечты о роскошной жизни разбиваются: ее насилуют, пытают, а вскоре похищают и увозят в непонятном направлении. Кэти оказывается одна в чужой стране, где ее почти что похоронят заживо. Чудом избежав смерти, девушка решает жестоко отомстить обидчикам…

Перевод: Профессиональный (многоголосый) | R5 + Любительский (многоголосый) | BaibaKo + Любительский (одноголосый) | den904
Субтитры: русские (R5 + от krylatkin), украинские, английские (Full + SDH + SDH-Colored)-Качество: BDRip 720p
Формат: МКV
Видео кодек: AVC
Аудио кодек: АС3
Видео: 1280x534 (2.40:1), 23.976 fps, MPEG-4 AVC ~3 969 kbps avg, 0.242 bit/pixel
Аудио №1: 48.0 kHz, AC3 Dolby Digital, 3/2 (L,C,R,l,r) + LFE ch, ~384 kbps | MVO
Аудио №2: 48.0 kHz, AC3 Dolby Digital, 3/2 (L,C,R,l,r) + LFE ch, ~384 kbps | BaibaKo
Аудио №3: 48.0 kHz, AC3 Dolby Digital, 2/0 (L,R) ch, ~192.00 kbps | den904
Аудио №4: 48.0 kHz, AC3 Dolby Digital, 3/2 (L,C,R,l,r) + LFE ch, ~640 kbps | ENG
Формат субтитров: UTF-8 Plain Text
Дата премьеры (мир): 25 августа 2013
релиз на DVD: 23 октября 2013, «Кармен Видео»
релиз на Blu-Ray: 13 ноября 2013, «Кармен Видео»
Скриншоты

Media Info 2

Общее
Уникальный идентификатор : 245968613176308159275195884291468091838 (0xB90BD4ED8A1D4C1D9002FE6C33D4E1BE)
Полное имя : Ya.Pluyu.Na.Vashy.Mogily.2.2013.UC.3xRus.Eng.BDRip.720p.-HELLYWOOD.mkv
Формат : Matroska
Версия формата : Version 4 / Version 2
Размер файла : 4,13 Гбайт
Длительность : 1 ч. 46 м.
Общий поток : 5565 Кбит/сек
Название фильма : I Spit On Your Grave 2 [UNRATED] (2013)
Дата кодирования : UTC 2016-05-18 11:36:27
Программа кодирования : mkvmerge v5.9.0 ('On The Loose') built on Dec 15 2012 16:39:58
Библиотека кодирования : libebml v1.3.0 + libmatroska v1.4.0
Видео
Идентификатор : 1
Формат : AVC
Формат/Информация : Advanced Video Кодек
Профиль формата : High@L4.1
Параметр CABAC формата : Да
Параметр ReFrames формата : 9 кадров
Идентификатор кодека : V_MPEG4/ISO/AVC
Длительность : 1 ч. 46 м.
Битрейт : 3969 Кбит/сек
Ширина : 1280 пикселей
Высота : 534 пикселя
Соотношение сторон : 2,40:1
Режим частоты кадров : Постоянный
Частота кадров : 23,976 кадра/сек
Цветовое пространство : YUV
Субдискретизация насыщенности : 4:2:0
Битовая глубина : 8 бит
Тип развёртки : Прогрессивная
Бит/(Пиксели*Кадры) : 0.242
Размер потока : 2,86 Гбайт (69%)
Заголовок : potroks
Библиотека кодирования : x264 core 130 r2273 b3065e6
Настройки программы : cabac=1 / ref=9 / deblock=1:-2:-2 / analyse=0x3:0x133 / me=umh / subme=11 / psy=1 / psy_rd=1.02:0.05 / mixed_ref=1 / me_range=48 / chroma_me=1 / trellis=2 / 8x8dct=1 / cqm=0 / deadzone=21,11 / fast_pskip=0 / chroma_qp_offset=-3 / threads=9 / lookahead_threads=8 / sliced_threads=0 / nr=0 / decimate=0 / interlaced=0 / bluray_compat=0 / constrained_intra=0 / bframes=11 / b_pyramid=2 / b_adapt=2 / b_bias=0 / direct=3 / weightb=1 / open_gop=0 / weightp=2 / keyint=250 / keyint_min=23 / scenecut=40 / intra_refresh=0 / rc_lookahead=60 / rc=2pass / mbtree=0 / bitrate=3969 / ratetol=1.0 / qcomp=0.70 / qpmin=0 / qpmax=69 / qpstep=4 / cplxblur=20.0 / qblur=0.5 / vbv_maxrate=50000 / vbv_bufsize=62500 / nal_hrd=none / ip_ratio=1.35 / pb_ratio=1.25 / aq=1:0.70
Язык : English
Default : Да
Forced : Нет
Аудио #1
Идентификатор : 2
Формат : AC-3
Формат/Информация : Audio Coding 3
Расширение режима : CM (complete main)
Параметр Endianness формата : Big
Идентификатор кодека : A_AC3
Длительность : 1 ч. 46 м.
Вид битрейта : Постоянный
Битрейт : 384 Кбит/сек
Каналы : 6 каналов
Расположение каналов : Front: L C R, Side: L R, LFE
Частота : 48,0 КГц
Частота кадров : 31,250 кадров/сек (1536 spf)
Метод сжатия : С потерями
Размер потока : 292 Мбайт (7%)
Заголовок : MVO | DD 5.1 @ 384 kbps - R5
Язык : Russian
Default : Да
Forced : Нет
Аудио #2
Идентификатор : 3
Формат : AC-3
Формат/Информация : Audio Coding 3
Расширение режима : CM (complete main)
Параметр Endianness формата : Big
Идентификатор кодека : A_AC3
Длительность : 1 ч. 46 м.
Вид битрейта : Постоянный
Битрейт : 384 Кбит/сек
Каналы : 6 каналов
Расположение каналов : Front: L C R, Side: L R, LFE
Частота : 48,0 КГц
Частота кадров : 31,250 кадров/сек (1536 spf)
Метод сжатия : С потерями
Размер потока : 292 Мбайт (7%)
Заголовок : MVO | DD 5.1 @ 384 kbps - BaibaKo
Язык : Russian
Default : Нет
Forced : Нет
Аудио #3
Идентификатор : 4
Формат : AC-3
Формат/Информация : Audio Coding 3
Расширение режима : CM (complete main)
Параметр Endianness формата : Big
Идентификатор кодека : A_AC3
Длительность : 1 ч. 46 м.
Вид битрейта : Постоянный
Битрейт : 192 Кбит/сек
Каналы : 2 канала
Расположение каналов : Front: L R
Частота : 48,0 КГц
Частота кадров : 31,250 кадров/сек (1536 spf)
Метод сжатия : С потерями
Размер потока : 146 Мбайт (3%)
Заголовок : VO | DD 2.0 @ 192 kbps - den904
Язык : Russian
Default : Нет
Forced : Нет
Аудио #4
Идентификатор : 5
Формат : AC-3
Формат/Информация : Audio Coding 3
Расширение режима : CM (complete main)
Параметр Endianness формата : Big
Идентификатор кодека : A_AC3
Длительность : 1 ч. 46 м.
Вид битрейта : Постоянный
Битрейт : 640 Кбит/сек
Каналы : 6 каналов
Расположение каналов : Front: L C R, Side: L R, LFE
Частота : 48,0 КГц
Частота кадров : 31,250 кадров/сек (1536 spf)
Метод сжатия : С потерями
Размер потока : 487 Мбайт (12%)
Заголовок : Original | DD 5.1 @ 640 kbps
Язык : English
Default : Нет
Forced : Нет
Текст #1
Идентификатор : 6
Формат : UTF-8
Идентификатор кодека : S_TEXT/UTF8
Идентификатор кодека/Информация : UTF-8 Plain Text
Заголовок : R5
Язык : Russian
Default : Нет
Forced : Нет
Текст #2
Идентификатор : 7
Формат : UTF-8
Идентификатор кодека : S_TEXT/UTF8
Идентификатор кодека/Информация : UTF-8 Plain Text
Заголовок : krylatkin
Язык : Russian
Default : Нет
Forced : Нет
Текст #3
Идентификатор : 8
Формат : UTF-8
Идентификатор кодека : S_TEXT/UTF8
Идентификатор кодека/Информация : UTF-8 Plain Text
Заголовок : R5
Язык : Ukrainian
Default : Нет
Forced : Нет
Текст #4
Идентификатор : 9
Формат : UTF-8
Идентификатор кодека : S_TEXT/UTF8
Идентификатор кодека/Информация : UTF-8 Plain Text
Заголовок : Full
Язык : English
Default : Нет
Forced : Нет
Текст #5
Идентификатор : 10
Формат : UTF-8
Идентификатор кодека : S_TEXT/UTF8
Идентификатор кодека/Информация : UTF-8 Plain Text
Заголовок : SDH
Язык : English
Default : Нет
Forced : Нет
Текст #6
Идентификатор : 11
Формат : UTF-8
Идентификатор кодека : S_TEXT/UTF8
Идентификатор кодека/Информация : UTF-8 Plain Text
Заголовок : SDH-Colored
Язык : English
Default : Нет
Forced : Нет
Меню
00:00:00.000 : en:00:00:00.000
00:07:11.056 : en:00:07:11.056
00:15:08.491 : en:00:15:08.491
00:24:16.455 : en:00:24:16.455
00:36:33.108 : en:00:36:33.108
00:46:44.844 : en:00:46:44.844
00:59:19.306 : en:00:59:19.306
01:11:52.683 : en:01:11:52.683
01:17:31.981 : en:01:17:31.981
01:23:12.112 : en:01:23:12.112
01:29:12.430 : en:01:29:12.430
01:42:08.205 : en:01:42:08.205

Я плюю на ваши могилы 3 / I Spit on Your Grave 3 / 2015

Я плюю на ваши могилы 3 / I Spit on Your Grave 3
Страна: США
Производство: Cinetel Films
Год выпуска: 2015
Жанр: ужасы, триллер, криминал
Продолжительность: 01:31:31
Режиссер: Р.Д. Браунштейн
Автор сценария: Дэниэл Гилбой
В ролях: Сара Батлер, Дженнифер Лэндон, Даг МакКиэн, Гэбриел Хоган, Харли Джейн Козак, Мишель Херд, Расселл Чарльз Питтс, Уолтер Перес
Описание: Главная героиня фильма, писательница Дженнифер Хиллз, начала новую жизнь. Она посещает психотерапевта и кризисную группу для жертв изнасилований. В группе она знакомится с бойкой и яркой девушкой, которая убеждает её, что месть — это и есть правосудие. Вместе они запугивают мужчину, который насилует свою падчерицу-подростка из их группы. А потом подругу насилует и убивает её бывший парень. Пришло время Дженнифер встретиться со своим прошлым. Понесут ли преступники заслуженное наказание..? И по какую сторону окажется сама Дженнифер..?

Перевод: Профессиональный (многоголосый) | iTunes + Любительский (двухголосый) | Line Masters + Многоголосый (украинский)
Субтитры: русские, английские (Full + SDH + SDH-Colored)-Качество: BDRip 720p
Формат: МКV
Видео кодек: AVC
Аудио кодек: АС3
Видео: 1280x534 (2.40:1), 23.976 fps, MPEG-4 AVC ~5 547 kbps avg, 0.338 bit/pixel
Аудио №1: 48.0 kHz, AC3 Dolby Digital, 3/2 (L,C,R,l,r) + LFE ch, ~384 kbps | MVO
Аудио №2: 48.0 kHz, AC3 Dolby Digital, 2/0 (L,R) ch, ~384.00 kbps | Line Masters
Аудио №3: 48.0 kHz, AC3 Dolby Digital, 2/0 (L,R) ch, ~192.00 kbps | UKR
Аудио №4: 48.0 kHz, AC3 Dolby Digital, 3/2 (L,C,R,l,r) + LFE ch, ~640 kbps | ENG
Формат субтитров: UTF-8 Plain Text
Дата премьеры (мир): 2 октября 2015
Дата премьеры (РФ): 1 октября 2015, «All Media»
Скриншоты

Media Info 3

Общее
Уникальный идентификатор : 219496497727015255043775954559266961166 (0xA5217CDE3C84B9B28EF50F8EE11FB70E)
Полное имя : Ya.Pluyu.Na.Vashy.Mogily.3.2015.2xRus.Ukr.Eng.BDRip.720p.-HELLYWOOD.mkv
Формат : Matroska
Версия формата : Version 4 / Version 2
Размер файла : 4,57 Гбайт
Длительность : 1 ч. 31 м.
Общий поток : 7146 Кбит/сек
Название фильма : I Spit on Your Grave 3 (2015)
Дата кодирования : UTC 2016-05-18 11:08:39
Программа кодирования : mkvmerge v5.9.0 ('On The Loose') built on Dec 15 2012 16:39:58
Библиотека кодирования : libebml v1.3.0 + libmatroska v1.4.0
Видео
Идентификатор : 1
Формат : AVC
Формат/Информация : Advanced Video Кодек
Профиль формата : High@L4.1
Параметр CABAC формата : Да
Параметр ReFrames формата : 8 кадров
Идентификатор кодека : V_MPEG4/ISO/AVC
Длительность : 1 ч. 31 м.
Битрейт : 5547 Кбит/сек
Ширина : 1280 пикселей
Высота : 534 пикселя
Соотношение сторон : 2,40:1
Режим частоты кадров : Постоянный
Частота кадров : 23,976 (24000/1001) кадра/сек
Цветовое пространство : YUV
Субдискретизация насыщенности : 4:2:0
Битовая глубина : 8 бит
Тип развёртки : Прогрессивная
Бит/(Пиксели*Кадры) : 0.338
Размер потока : 3,45 Гбайт (76%)
Заголовок : potroks
Библиотека кодирования : x264 core 128 r2216M 198a7ea
Настройки программы : cabac=1 / ref=9 / deblock=1:-3:-3 / analyse=0x3:0x133 / me=umh / subme=11 / psy=1 / psy_rd=1.00:0.05 / mixed_ref=1 / me_range=48 / chroma_me=1 / trellis=2 / 8x8dct=1 / cqm=0 / deadzone=21,11 / fast_pskip=0 / chroma_qp_offset=-3 / threads=10 / lookahead_threads=1 / sliced_threads=0 / nr=0 / decimate=1 / interlaced=0 / bluray_compat=0 / constrained_intra=0 / bframes=10 / b_pyramid=1 / b_adapt=2 / b_bias=0 / direct=3 / weightb=1 / open_gop=0 / weightp=2 / keyint=250 / keyint_min=23 / scenecut=40 / intra_refresh=0 / rc_lookahead=40 / rc=2pass / mbtree=0 / bitrate=5547 / ratetol=1.0 / qcomp=0.70 / qpmin=0 / qpmax=69 / qpstep=4 / cplxblur=20.0 / qblur=0.5 / vbv_maxrate=62500 / vbv_bufsize=62500 / nal_hrd=none / ip_ratio=1.35 / pb_ratio=1.30 / aq=1:0.75
Язык : English
Default : Да
Forced : Нет
Аудио #1
Идентификатор : 2
Формат : AC-3
Формат/Информация : Audio Coding 3
Расширение режима : CM (complete main)
Параметр Endianness формата : Big
Идентификатор кодека : A_AC3
Длительность : 1 ч. 31 м.
Вид битрейта : Постоянный
Битрейт : 384 Кбит/сек
Каналы : 6 каналов
Расположение каналов : Front: L C R, Side: L R, LFE
Частота : 48,0 КГц
Частота кадров : 31,250 кадров/сек (1536 spf)
Метод сжатия : С потерями
Размер потока : 251 Мбайт (5%)
Заголовок : MVO | DD 5.1 @ 384 kbps - iTunes
Язык : Russian
Default : Да
Forced : Нет
Аудио #2
Идентификатор : 3
Формат : AC-3
Формат/Информация : Audio Coding 3
Расширение режима : CM (complete main)
Параметр Endianness формата : Big
Идентификатор кодека : A_AC3
Длительность : 1 ч. 31 м.
Вид битрейта : Постоянный
Битрейт : 384 Кбит/сек
Каналы : 2 канала
Расположение каналов : Front: L R
Частота : 48,0 КГц
Частота кадров : 31,250 кадров/сек (1536 spf)
Метод сжатия : С потерями
Размер потока : 251 Мбайт (5%)
Заголовок : DVO | DD 2.0 @ 384 kbps - Line Masters
Язык : Russian
Default : Нет
Forced : Нет
Аудио #3
Идентификатор : 4
Формат : AC-3
Формат/Информация : Audio Coding 3
Расширение режима : CM (complete main)
Параметр Endianness формата : Big
Идентификатор кодека : A_AC3
Длительность : 1 ч. 31 м.
Вид битрейта : Постоянный
Битрейт : 192 Кбит/сек
Каналы : 2 канала
Расположение каналов : Front: L R
Частота : 48,0 КГц
Частота кадров : 31,250 кадров/сек (1536 spf)
Метод сжатия : С потерями
Размер потока : 126 Мбайт (3%)
Заголовок : MVO | DD 2.0 @ 192 kbps
Язык : Ukrainian
Default : Нет
Forced : Нет
Аудио #4
Идентификатор : 5
Формат : AC-3
Формат/Информация : Audio Coding 3
Расширение режима : CM (complete main)
Параметр Endianness формата : Big
Идентификатор кодека : A_AC3
Длительность : 1 ч. 31 м.
Вид битрейта : Постоянный
Битрейт : 640 Кбит/сек
Каналы : 6 каналов
Расположение каналов : Front: L C R, Side: L R, LFE
Частота : 48,0 КГц
Частота кадров : 31,250 кадров/сек (1536 spf)
Метод сжатия : С потерями
Размер потока : 419 Мбайт (9%)
Заголовок : Original | DD 5.1 @ 640 kbps
Язык : English
Default : Нет
Forced : Нет
Текст #1
Идентификатор : 6
Формат : UTF-8
Идентификатор кодека : S_TEXT/UTF8
Идентификатор кодека/Информация : UTF-8 Plain Text
Язык : Russian
Default : Нет
Forced : Нет
Текст #2
Идентификатор : 7
Формат : UTF-8
Идентификатор кодека : S_TEXT/UTF8
Идентификатор кодека/Информация : UTF-8 Plain Text
Заголовок : Full
Язык : English
Default : Нет
Forced : Нет
Текст #3
Идентификатор : 8
Формат : UTF-8
Идентификатор кодека : S_TEXT/UTF8
Идентификатор кодека/Информация : UTF-8 Plain Text
Заголовок : SDH
Язык : English
Default : Нет
Forced : Нет
Текст #4
Идентификатор : 9
Формат : UTF-8
Идентификатор кодека : S_TEXT/UTF8
Идентификатор кодека/Информация : UTF-8 Plain Text
Заголовок : SDH-Colored
Язык : English
Default : Нет
Forced : Нет
Меню
00:00:00.000 : :(01)00:00:00:000
00:06:34.394 : :(02)00:06:34:394
00:14:42.047 : :(03)00:14:42:047
00:20:19.218 : :(04)00:20:19:218
00:28:29.541 : :(05)00:28:29:541
00:39:15.019 : :(06)00:39:15:019
00:47:19.044 : :(07)00:47:19:044
00:58:44.354 : :(08)00:58:44:354
01:08:09.752 : :(09)01:08:09:752
01:12:49.531 : :(10)01:12:49:531
01:18:53.729 : :(11)01:18:53:729
01:27:29.911 : :(12)01:27:29:911
01:31:30.485 : :(13)01:31:30:485
Релиз от:
[Профиль] [ЛС]
Кто просматривает тему:

Показать сообщения:    

Текущее время: Сегодня 07:14

Часовой пояс: GMT



Вы не можете начинать темы
Вы не можете отвечать на сообщения
Вы не можете редактировать свои сообщения
Вы не можете удалять свои сообщения
Вы не можете голосовать в опросах
Вы не можете прикреплять файлы к сообщениям
Вы не можете скачивать файлы