Я очень возбужден / Los amantes pasajeros (2013) BDRip 1080p | GER Transfer | D, A

 
Автор Сообщение

Russian Mafia ®

Пол:

Стаж: 1 год 8 месяцев

Сообщений: 4255



Награды: 10 (Подробнее)

Top Releaser 4 (Количество: 1) За внесенный вклад в развитие сайта (Количество: 1) Mega Seeder 5 (Количество: 1)
Торрент-статистика

Создавать темы 28-Мар-2016 20:20

[Цитировать]

Название: Я очень возбужден
Оригинальное название: Los amantes pasajeros
Год выхода: 2013
Страна: Испания
Студия: El Deseo
Продолжительность: 01:30:01
Жанр: комедия, ...
Режиссер: Педро Альмодовар
В ролях: Хавьер Камара, Сесилия Рот, Лола Дуэньяс, Карлос Аресес, Рауль Аревало, Хосе Луис Торрихо, Антонио де ла Торре, Уго Сильва, Гильермо Толедо, Хосе Мария Яспик, Пенелопа Крус, Антонио Бандерас, Паз Вега, ...
Перевод:
Профессиональный (дублированный) МОСФИЛЬМ-мастер
Авторский (одноголосый, закадровый) Алексеев Антон Васильевич
О фильме: Рейс лайнера, совершающего перелет в Мексику, начался как обычно: пассажиры пристегнули ремни, а командир корабля, включив автопилот, спокойно уснул. Но прямо над океаном оказалось, что самолет неисправен, исчезает интернет, и все гаджеты разом выходят из строя. Всех охватывает страх, ужас, отчаяние. Беспомощные пассажиры и экипаж, оказавшись пред лицом гибели, наконец-то должны стать сами собой. Так что несчастным на борту падающего самолета не остается ничего, как только петь и танцевать вслед за веселыми стюардами…

Кодек: x264
Качество: BDRip 1080p
Видео: 1920x1036, 14000 kbps, 23,976 fps
Аудио #1: AC-3, 6 ch, 640 kbps (Rus) - Dub МОСФИЛЬМ-мастер
Аудио #2: AC-3, 6 ch, 640 kbps (Rus) - AVO Алексеев Антон Васильевич
Аудио #3: DTS, 6 ch, 1509 (Spa)
Субтитры: Английские, Испанские (SDH)

Дополнительная информация

За исходник спасибо - ylnian
Заказ перевода у Антона Алексеева - ylnian
Сравнение с Blu Ray (RUS)

MI

x264 [info]: frame I:821 Avg QP:16.92 size:354670
x264 [info]: frame P:25452 Avg QP:18.90 size:150479
x264 [info]: frame B:103224 Avg QP:21.51 size: 51513
x264 [info]: consecutive B-frames: 1.6% 3.5% 4.7% 11.2% 13.2% 34.4% 15.3% 14.7% 0.7% 0.1% 0.1% 0.1% 0.4%
Общее
Уникальный идентификатор : 175230408974247297526379359959349980858 (0x83D42630BB136FFCA88A16D3C127EEBA)
Полное имя : Я очень возбужден (Los amantes pasajeros) 2013 BDRip 1080p.mkv
Формат : Matroska
Версия формата : Version 2
Размер файла : 10,5 Гбайт
Продолжительность : 1 ч. 30 м.
Общий поток : 16,8 Мбит/сек
Дата кодирования : UTC 2016-03-28 17:18:43
Программа кодирования : mkvmerge v4.0.0 ('The Stars were mine') сборка от Jun 6 2010 16:18:42
Библиотека кодирования : libebml v1.0.0 + libmatroska v1.0.0
Видео
Идентификатор : 1
Формат : AVC
Формат/Информация : Advanced Video Codec
Профиль формата : High@L4.1
Параметр CABAC формата : Да
Параметр ReFrames формата : 4 кадра
Идентификатор кодека : V_MPEG4/ISO/AVC
Продолжительность : 1 ч. 30 м.
Битрейт : 14,0 Мбит/сек
Ширина : 1920 пикселей
Высота : 1036 пикселей
Соотношение сторон : 1,85:1
Режим частоты кадров : Постоянный
Частота кадров : 23,976 кадра/сек
Цветовое пространство : YUV
Субдискретизация насыщенности : 4:2:0
Битовая глубина : 8 бит
Тип развёртки : Прогрессивная
Бит/(Пиксели*Кадры) : 0.294
Размер потока : 8,58 Гбайт (81%)
Библиотека кодирования : x264 core 146 r2538 121396c
Настройки программы : cabac=1 / ref=4 / deblock=1:-3:-3 / analyse=0x3:0x133 / me=umh / subme=11 / psy=1 / psy_rd=1.00:0.00 / mixed_ref=1 / me_range=32 / chroma_me=1 / trellis=2 / 8x8dct=1 / cqm=0 / deadzone=21,11 / fast_pskip=0 / chroma_qp_offset=-2 / threads=12 / lookahead_threads=2 / sliced_threads=0 / nr=0 / decimate=0 / interlaced=0 / bluray_compat=0 / constrained_intra=0 / bframes=12 / b_pyramid=2 / b_adapt=2 / b_bias=0 / direct=3 / weightb=1 / open_gop=0 / weightp=2 / keyint=240 / keyint_min=24 / scenecut=40 / intra_refresh=0 / rc=2pass / mbtree=0 / bitrate=14000 / ratetol=1.0 / qcomp=0.60 / qpmin=0 / qpmax=69 / qpstep=4 / cplxblur=20.0 / qblur=0.5 / ip_ratio=1.40 / pb_ratio=1.30 / aq=1:0.80
Язык : Spanish
Default : Нет
Forced : Нет
Аудио #1
Идентификатор : 2
Формат : AC-3
Формат/Информация : Audio Coding 3
Расширение режима : CM (complete main)
Параметр Endianness формата : Big
Идентификатор кодека : A_AC3
Продолжительность : 1 ч. 30 м.
Вид битрейта : Постоянный
Битрейт : 640 Кбит/сек
Каналы : 6 каналов
Расположение каналов : Front: L C R, Side: L R, LFE
Частота : 48,0 КГц
Метод сжатия : С потерями
Размер потока : 412 Мбайт (4%)
Заголовок : Dub МОСФИЛЬМ-мастер
Язык : Russian
Default : Нет
Forced : Нет
Аудио #2
Идентификатор : 3
Формат : AC-3
Формат/Информация : Audio Coding 3
Расширение режима : CM (complete main)
Параметр Endianness формата : Big
Идентификатор кодека : A_AC3
Продолжительность : 1 ч. 30 м.
Вид битрейта : Постоянный
Битрейт : 640 Кбит/сек
Каналы : 6 каналов
Расположение каналов : Front: L C R, Side: L R, LFE
Частота : 48,0 КГц
Метод сжатия : С потерями
Размер потока : 412 Мбайт (4%)
Заголовок : AVO Алексеев Антон Васильевич
Язык : Russian
Default : Нет
Forced : Нет
Аудио #3
Идентификатор : 4
Формат : DTS
Формат/Информация : Digital Theater Systems
Режим : 16
Параметр Endianness формата : Big
Идентификатор кодека : A_DTS
Продолжительность : 1 ч. 30 м.
Вид битрейта : Постоянный
Битрейт : 1509 Кбит/сек
Каналы : 6 каналов
Расположение каналов : Front: L C R, Side: L R, LFE
Частота : 48,0 КГц
Битовая глубина : 24 бит
Метод сжатия : С потерями
Размер потока : 972 Мбайт (9%)
Язык : Spanish
Default : Нет
Forced : Нет
Текст #1
Идентификатор : 5
Формат : UTF-8
Идентификатор кодека : S_TEXT/UTF8
Идентификатор кодека/Информация : UTF-8 Plain Text
Язык : English
Default : Нет
Forced : Нет
Текст #2
Идентификатор : 6
Формат : UTF-8
Идентификатор кодека : S_TEXT/UTF8
Идентификатор кодека/Информация : UTF-8 Plain Text
Заголовок : SDH
Язык : Spanish
Default : Нет
Forced : Нет

[Профиль] [ЛС]
Кто просматривает тему:

Показать сообщения:    

Текущее время: Сегодня 16:21

Часовой пояс: GMT



Вы не можете начинать темы
Вы не можете отвечать на сообщения
Вы не можете редактировать свои сообщения
Вы не можете удалять свои сообщения
Вы не можете голосовать в опросах
Вы не можете прикреплять файлы к сообщениям
Вы не можете скачивать файлы