Я не серийный убийца / I Am Not a Serial Killer (2016) WEB-DL 1080p | L

 
Автор Сообщение

ODESSA ®

Пол:

Стаж: 1 год 7 месяцев

Сообщений: 420

Откуда: ODESSA



Награды: Нет

Торрент-статистика

Создавать темы 08-Сен-2016 11:13

[Цитировать]

Я не серийный убийца / I Am Not a Serial Killer
Страна: Ирландия Великобритания
Производство: Winterland Pictures, Tea Shop & Film Company, Liquid Noise Films, Level 5 Films, Floodland Pictures
Год выпуска: 2016
Жанр: триллер
Продолжительность: 01:43:22
Режиссер: Билли О`Брайэн
Авторы сценария: Крис Хайд, Билли О`Брайэн, Дэн Уэллс
В ролях: Кристофер Ллойд, Лора Фрейзер, Макс Рекордс, Карл Джиари, Брюс Боне, Морган Риззо, Эммилу Барден, Райан Дж. Гилмер, Тим Расселл
Описание: 15-летний Джон Уэйн Кливер живёт с разведённой матерью и старшей сестрой. Он, в свободное время, помогает маме работать в морге (его мать патологоанатом). В свободное время он страдает от преследующих его психопатических мыслей, в которых хочет убивать людей. Даже психолог доктор Неблин, к которому Джон ходит еженедельно, не может ему помочь. Вскоре в городе объявляется серийный убийца, который убивает мужчин и вынимает из них органы...

Перевод: Любительский (многоголосый, закадровый) | RATTLEBOX
Роли озвучивали: К.Болоцкий, А.Маликов, В.Голицин, А.Садовская, В.Кузин, А.Шевченко, Н.Колодяжная
Субтитры: английские-Качество: WEB-DL 1080p
Формат: МКV
Видео кодек: AVC
Аудио кодек: АС3
Видео: 1920x1080 (16:9), 23.976 fps, MPEG-4 AVC ~5 261 kbps avg
Аудио №1: 48.0 kHz, AC3 Dolby Digital, 3/2 (L,C,R,l,r) + LFE ch, ~384 kbps | ENG / аудиодорожка №1 оригинал
Аудио №2: 48.0 kHz, AC3 Dolby Digital, 3/2 (L,C,R,l,r) + LFE ch, ~448 kbps | RUS / аудиодорожка №2 русский
Формат субтитров: UTF-8 Plain Text
Дата премьеры (мир): 13 марта 2016

Media Info

General
Unique ID : 220832987453675691914366797225059334899 (0xA622E2E62A7688B90D329560582ABAF3)
Complete name : I.Am.Not.a.Serial.Killer.2016.1080p.WEB-DL.DD5.1.H264-FGT(rattlebox).mkv
Format : Matroska
Format version : Version 4 / Version 2
File size : 4.40 GiB
Duration : 1h 43mn
Overall bit rate : 6 095 Kbps
Movie name : I.Am.Not.a.Serial.Killer.2016.1080p.WEB-DL.DD5.1.H264-FGT
Encoded date : UTC 2016-09-05 15:46:03
Writing application : mkvmerge v9.3.1 ('Mask Machine') 64bit
Writing library : libebml v1.3.4 + libmatroska v1.4.5
Cover : Yes
Video
ID : 1
Format : AVC
Format/Info : Advanced Video Codec
Format profile : High@L4
Format settings, CABAC : Yes
Format settings, ReFrames : 4 frames
Codec ID : V_MPEG4/ISO/AVC
Duration : 1h 43mn
Bit rate : 5 261 Kbps
Width : 1 920 pixels
Height : 1 080 pixels
Display aspect ratio : 16:9
Frame rate mode : Constant
Frame rate : 23.976 (23976/1000) fps
Color space : YUV
Chroma subsampling : 4:2:0
Bit depth : 8 bits
Scan type : Progressive
Bits/(Pixel*Frame) : 0.106
Stream size : 3.80 GiB (86%)
Title : I.Am.Not.a.Serial.Killer.2016.1080p.WEB-DL.DD5.1.H264-FGT
Language : English
Default : Yes
Forced : No
Color range : Limited
Color primaries : BT.709
Transfer characteristics : BT.709
Matrix coefficients : BT.709
Audio #1
ID : 2
Format : AC-3
Format/Info : Audio Coding 3
Mode extension : CM (complete main)
Format settings, Endianness : Big
Codec ID : A_AC3
Duration : 1h 43mn
Bit rate mode : Constant
Bit rate : 384 Kbps
Channel(s) : 6 channels
Channel positions : Front: L C R, Side: L R, LFE
Sampling rate : 48.0 KHz
Frame rate : 31.250 fps (1536 spf)
Compression mode : Lossy
Stream size : 284 MiB (6%)
Title : I.Am.Not.a.Serial.Killer.2016.1080p.WEB-DL.DD5.1.H264-FGT
Language : English
Default : No
Forced : No
Audio #2
ID : 4
Format : AC-3
Format/Info : Audio Coding 3
Mode extension : CM (complete main)
Format settings, Endianness : Big
Codec ID : A_AC3
Duration : 1h 43mn
Bit rate mode : Constant
Bit rate : 448 Kbps
Channel(s) : 6 channels
Channel positions : Front: L C R, Side: L R, LFE
Sampling rate : 48.0 KHz
Frame rate : 31.250 fps (1536 spf)
Compression mode : Lossy
Stream size : 331 MiB (7%)
Title : rattlebox
Language : Russian
Default : Yes
Forced : No
Text
ID : 3
Format : UTF-8
Codec ID : S_TEXT/UTF8
Codec ID/Info : UTF-8 Plain Text
Duration : 1h 38mn
Bit rate : 44 bps
Count of elements : 990
Stream size : 31.8 KiB (0%)
Language : English
Default : Yes
Forced : No
Menu
00:00:00.000 : en:1
00:11:54.000 : en:2
00:21:33.000 : en:3
00:30:04.000 : en:4
00:44:02.000 : en:5
00:54:10.000 : en:6
01:09:23.000 : en:7
01:21:52.000 : en:8
01:39:47.000 : en:9

Скриншоты

[Профиль] [ЛС]
Показать сообщения:    

Текущее время: Сегодня 18:29

Часовой пояс: GMT



Вы не можете начинать темы
Вы не можете отвечать на сообщения
Вы не можете редактировать свои сообщения
Вы не можете удалять свои сообщения
Вы не можете голосовать в опросах
Вы не можете прикреплять файлы к сообщениям
Вы не можете скачивать файлы