Я – начало / I Origins (Майк Кэхилл / Mike Cahill) [2014, США, Драма, фантастика, HDRip ] MVO (iTunes)

 
Автор Сообщение

TorrentFilm ®

Пол:

Стаж: 2 года

Сообщений: 7741



Награды: Нет

Торрент-статистика

Создавать темы 29-Дек-2014 00:16

[Цитировать]

Я – начало / I Origins
Страна: США
Жанр: Драма, фантастика
Год выпуска: 2014
Продолжительность: 01:48:07
Перевод: Профессиональный (дублированый) [iTunes]
Оригинальная аудиодорожка: нет
Cубтитры: нет
Режиссер: Майк Кэхилл / Mike Cahill
В ролях: Майкл Питт, Стивен Ян, Астрид Берже-Фрисби, Брит Марлинг, Дориен Маклоги, Чарльз В. Грэй, Джон Шиумо, Фараша Бэйлок, Ако, Кристофер Сантамария
Описание:Молодого и перспективного микробиолога повсюду преследует цифра "11". Он не упираясь следует за ней и она приводит его к молодой девушке в которую наш герой безумно влюбляется. Девушка открывает ему мир совсем в другом ракурсе и для него её глаза настоящее "зеркало души". Но девушка умирает. Он погружается в работу, вместе со своей помощницей, делает невероятное открытие, которое меняет понимания всего зарождения жизни людей и это открытие может изменить весь мир...

Сэмпл
Качество: НDRip
Контейнер: AVI
Видео: 688x288 (2.39:1), 23.976 fps, XviD build 73 ~831 kbps avg, 0.17 bit/pixel
Аудио: 48 kHz, MPEG Layer 3, 2 ch, ~128.00 kbps avg

MI

Общее
Полное имя : C:\Users\Пользователь\Downloads\Я - Начало. 2014. HDRip. (AleksSin).avi
Формат : AVI
Формат/Информация : Audio Video Interleave
Размер файла : 746 Мбайт
Продолжительность : 1 ч. 47 м.
Общий поток : 969 Кбит/сек
Программа кодирования : VirtualDubMod 1.5.10.3 | www.virtualdub-fr.org || (build 2550/release)
Библиотека кодирования : VirtualDubMod build 2550/release
Видео
Идентификатор : 0
Формат : MPEG-4 Visual
Профиль формата : Advanced Simple@L5
Параметр BVOP формата : 1
Параметр QPel формата : Нет
Параметр GMC формата : Без точки перехода
Параметр матрицы формата : Выборочная
Идентификатор кодека : XVID
Идентификатор кодека/Подсказка : XviD
Продолжительность : 1 ч. 47 м.
Битрейт : 832 Кбит/сек
Ширина : 688 пикселей
Высота : 288 пикселей
Соотношение сторон : 2,40:1
Частота кадров : 23,976 кадра/сек
Цветовое пространство : YUV
Субдискретизация насыщенности : 4:2:0
Битовая глубина : 8 бит
Тип развёртки : Прогрессивная
Метод сжатия : С потерями
Бит/(Пиксели*Кадры) : 0.175
Размер потока : 640 Мбайт (86%)
Библиотека кодирования : XviD 73
Аудио
Идентификатор : 1
Формат : MPEG Audio
Версия формата : Version 1
Профиль формата : Layer 3
Идентификатор кодека : 55
Идентификатор кодека/Подсказка : MP3
Продолжительность : 1 ч. 47 м.
Вид битрейта : Постоянный
Битрейт : 128 Кбит/сек
Каналы : 2 канала
Частота : 48,0 КГц
Метод сжатия : С потерями
Размер потока : 98,5 Мбайт (13%)
Выравнивание : Соединение по промежуткам
Продолжительность промежутка : 42 мс. (1,00 видеокадр)
Время предзагрузки промежутка : 504 мс.
Библиотека кодирования : LAME3.99r
Настройки программы : -m s -V 4 -q 2 -lowpass 17 -b 128

Скриншоты

[Профиль] [ЛС]
Кто просматривает тему:

Показать сообщения:    

Текущее время: Сегодня 16:25

Часовой пояс: GMT



Вы не можете начинать темы
Вы не можете отвечать на сообщения
Вы не можете редактировать свои сообщения
Вы не можете удалять свои сообщения
Вы не можете голосовать в опросах
Вы не можете прикреплять файлы к сообщениям
Вы не можете скачивать файлы