Я – начало / I Origins (2014) BDRip [720p]

 
Автор Сообщение

sergej644 ®

Пол:

Стаж: 4 года 11 месяцев

Сообщений: 6045

Откуда: Soviet Union



Награды: Нет

Торрент-статистика

Создавать темы 18-Дек-2014 10:14

[Цитировать]

- Я – начало / I Origins (2014) BDRip [720p]- Год выпуска: 2014
Производство: Verisimilitude, WeWork Studios, Bersin Pictures (США)
Жанр: Фантастика, Драма
Описание фильма:
Молекулярный биолог и его напарница по лаборатории делают потрясающее открытие, способное коренным образом изменить современное общество.
Режиссер: Майк Кэхилл
Актеры: Майкл Питт, Брит Марлинг, Астрид Берже-Фрисби, Стивен Ян, Арчи Панджаби, Кашиш, Кэра Сеймур, Уильям Мапотер, Кристал Энн Дикинсон, Венида Эванс
Продолжительность: 01:47:34
Качество видео: BDRip
Перевод: Многоголосый закадровый, профессиональный (iTunes)
Вид субтитров: Вшитые, отключаемые
Язык субтитров: Английский-
Дата мировой премьеры: 18 января 2014
Дата выхода релиза на Blu-Ray: 9 декабря 2014, 20th Century Fox-Видеокодек: MPEG-4 AVC/H.264
Битрейт видео: ~4 306 Kbps
Размер кадра: 1280x536
Аудио 1: AC3, 384 Kb/s, (6 ch) |Русский|
Аудио 2: DTS, 1509 Kb/s, (6 ch) |Английский|

MediaInfo:

Общее
Полное имя : \Я.начало_I.Origins.2014.BDRip.720p.mkv
Формат : Matroska
Версия формата : Version 4 / Version 2
Размер файла : 4,66 Гбайт
Продолжительность : 1 ч. 47 м.
Общий поток : 6198 Кбит/сек
Название фильма : Я.начало_I.Origins.2014.BDRip.720p
Дата кодирования : UTC 2010-02-22 21:41:31
Программа кодирования : mkvmerge v5.8.0 ('No Sleep / Pillow') built on Nov 13 2012 19:43:22
Библиотека кодирования : libebml v1.3.0 + libmatroska v1.4.0
Видео
Идентификатор : 1
Формат : AVC
Формат/Информация : Advanced Video Codec
Профиль формата : [url=mailto:High@L4.1]High@L4.1[/url]
Параметр CABAC формата : Да
Параметр ReFrames формата : 5 кадров
Идентификатор кодека : V_MPEG4/ISO/AVC
Продолжительность : 1 ч. 47 м.
Битрейт : 4306 Кбит/сек
Ширина : 1280 пикселей
Высота : 536 пикселей
Соотношение сторон : 2,40:1
Режим частоты кадров : Постоянный
Частота кадров : 23,976 кадра/сек
Цветовое пространство : YUV
Субдискретизация насыщенности : 4:2:0
Битовая глубина : 8 бит
Тип развёртки : Прогрессивная
Бит/(Пиксели*Кадры) : 0.262
Размер потока : 3,14 Гбайт (67%)
Заголовок : Я.начало_I.Origins.2014.BDRip.720p
Библиотека кодирования : x264 core 142 r2491 24e4fed
Настройки программы : cabac=1 / ref=5 / deblock=1:-3:-3 / analyse=0x3:0x113 / me=umh / subme=8 / psy=1 / psy_rd=1.00:0.00 / mixed_ref=1 / me_range=16 / chroma_me=1 / trellis=1 / 8x8dct=1 / cqm=0 / deadzone=21,11 / fast_pskip=1 / chroma_qp_offset=-2 / threads=18 / lookahead_threads=3 / sliced_threads=0 / nr=0 / decimate=1 / interlaced=0 / bluray_compat=0 / constrained_intra=0 / bframes=3 / b_pyramid=2 / b_adapt=2 / b_bias=0 / direct=3 / weightb=1 / open_gop=0 / weightp=2 / keyint=240 / keyint_min=24 / scenecut=40 / intra_refresh=0 / rc_lookahead=50 / rc=2pass / mbtree=1 / bitrate=4306 / ratetol=1.0 / qcomp=0.60 / qpmin=0 / qpmax=69 / qpstep=4 / cplxblur=20.0 / qblur=0.5 / ip_ratio=1.40 / aq=1:1.00
Язык : English
Default : Да
Forced : Нет
Аудио #1
Идентификатор : 2
Формат : AC-3
Формат/Информация : Audio Coding 3
Расширение режима : CM (complete main)
Параметр Endianness формата : Big
Идентификатор кодека : A_AC3
Продолжительность : 1 ч. 47 м.
Вид битрейта : Постоянный
Битрейт : 384 Кбит/сек
Каналы : 6 каналов
Расположение каналов : Front: L C R, Side: L R, LFE
Частота : 48,0 КГц
Битовая глубина : 16 бит
Метод сжатия : С потерями
Размер потока : 296 Мбайт (6%)
Заголовок : Многоголосый закадровый, профессиональный [iTunes]
Язык : Russian
Default : Нет
Forced : Нет
Аудио #2
Идентификатор : 3
Формат : DTS
Формат/Информация : Digital Theater Systems
Профиль формата : ES
Режим : 16
Параметр Endianness формата : Big
Идентификатор кодека : A_DTS
Продолжительность : 1 ч. 47 м.
Вид битрейта : Постоянный
Битрейт : 1509 Кбит/сек
Каналы : 6 каналов
Расположение каналов : Front: L C R, Side: L R, LFE
Частота : 48,0 КГц
Битовая глубина : 24 бит
Метод сжатия : С потерями
Размер потока : 1,13 Гбайт (24%)
Заголовок : DTS-1509 kbps
Язык : English
Default : Нет
Forced : Нет
Текст #1
Идентификатор : 4
Формат : UTF-8
Идентификатор кодека : S_TEXT/UTF8
Идентификатор кодека/Информация : UTF-8 Plain Text
Заголовок : SDH
Язык : English
Default : Нет
Forced : Нет
Текст #2
Идентификатор : 5
Формат : UTF-8
Идентификатор кодека : S_TEXT/UTF8
Идентификатор кодека/Информация : UTF-8 Plain Text
Язык : English
Default : Нет
Forced : Нет
Меню
00:00:00.000 : en:00:00:00.000
00:02:40.619 : en:00:02:40.619
00:05:32.707 : en:00:05:32.707
00:07:23.693 : en:00:07:23.693
00:12:35.505 : en:00:12:35.505
00:13:52.206 : en:00:13:52.206
00:16:43.252 : en:00:16:43.252
00:19:00.973 : en:00:19:00.973
00:21:32.666 : en:00:21:32.666
00:25:36.535 : en:00:25:36.535
00:29:38.026 : en:00:29:38.026
00:32:51.219 : en:00:32:51.219
00:36:25.225 : en:00:36:25.225
00:42:30.131 : en:00:42:30.131
00:46:37.920 : en:00:46:37.920
00:50:51.048 : en:00:50:51.048
00:54:16.295 : en:00:54:16.295
00:58:26.336 : en:00:58:26.336
01:02:26.368 : en:01:02:26.368
01:05:25.755 : en:01:05:25.755
01:07:49.357 : en:01:07:49.357
01:12:53.327 : en:01:12:53.327
01:16:32.087 : en:01:16:32.087
01:18:40.007 : en:01:18:40.007
01:21:18.916 : en:01:21:18.916
01:24:00.244 : en:01:24:00.244
01:26:06.703 : en:01:26:06.703
01:27:52.350 : en:01:27:52.350
01:32:45.518 : en:01:32:45.518
01:37:39.604 : en:01:37:39.604
01:39:03.396 : en:01:39:03.396
01:42:23.346 : en:01:42:23.346
Скриншоты:

Время раздачи: круглогодичноИграю на аккордеоне за "Спасибо"
[Профиль] [ЛС]
Кто просматривает тему:

Показать сообщения:    

Текущее время: Сегодня 02:17

Часовой пояс: GMT



Вы не можете начинать темы
Вы не можете отвечать на сообщения
Вы не можете редактировать свои сообщения
Вы не можете удалять свои сообщения
Вы не можете голосовать в опросах
Вы не можете прикреплять файлы к сообщениям
Вы не можете скачивать файлы