Я люблю неприятности / I Love Trouble (1994) BDRip 720p | D, P, P2, A

 
Автор Сообщение

sergej644 ®

Пол:

Стаж: 4 года 11 месяцев

Сообщений: 6041

Откуда: Soviet Union



Награды: Нет

Торрент-статистика

Создавать темы 31-Янв-2015 22:37

[Цитировать]

Название: Я люблю неприятности
Оригинальное название: I Love Trouble
Год выпуска: 1994
Жанр: Боевик, мелодрама, комедия
Выпущено: США, Caravan Pictures, Touchstone Pictures
Режиссер: Чарльз Шайер
В ролях: Ник Нолти, Джулия Робертс, Сол Рубинек, Джеймс Ребхорн, Роберт Лоджа, Келли Разерфорд, Олимпия Дукакис, Марша Мейсон, Юджин Леви, Чарльз Мартин Смит
О фильме: Главные герои — конкурирующие журналисты, которые постоянно гоняются за сенсациями и также постоянно нарываются на неприятности. Пытаясь избавиться друг от друга в расследовании таинственной железнодорожной катастрофы, они случайно натыкаются на страшную правду, которая бросает их в объятия страха и … в объятия друг друга. Никогда любовь не была так опасна!
Качество: BDRip 720p
Размер: 7.37 ГБ
Продолжительность: 02:02:52
Видео: MPEG-4 AVC, 5339 Кбит/с, 1278x720
Аудио 1: русский, 48 kHz, AC3, 2 ch, 192 kbps avg, [Дублированный]
Аудио 2: русский, 48 kHz, AC3, 6 ch, 384 kbps avg, [Профессиональный многоголосый, Нева 1, СЕЕ]
Аудио 3: русский, 48 kHz, AC3, 2 ch, 192 kbps avg, [Профессиональный многоголосый, ОРТ/1 канал, SATRip]
Аудио 4: русский, 48 kHz, AC3, 2 ch, 192 kbps avg, [Профессиональный двухголосый, HTB+]
Аудио 5: русский, 48 kHz, AC3, 2 ch, 192 kbps avg, [Авторский, Сергей Визгунов]
Аудио 6: русский, 48 kHz, AC3, 6 ch, 640 kbps avg, [Авторский, Андрей Гаврилов]
Аудио 7: русский, 48 kHz, AC3, 6 ch, 640 kbps avg, [Авторский, Василий Горчаков]
Аудио 8: английский, 48 kHz, AC3, 6 ch, 640 kbps avg, [Оригинал]
Субтитры 1: русские
Субтитры 2: английские
Исходник: grab777(Кинозал)

MediaInfo + Лог х264

Общее
Уникальный идентификатор : 209653801399562073027964467047425812953 (0x9DB9DA78E1A09100965C8B27DC8EA9D9)
Полное имя : D:VideoJa ljublju neprijatnosti.1994.BDRip.720p.mkv
Формат : Matroska
Версия формата : Version 4 / Version 2
Размер файла : 7,37 Гбайт
Продолжительность : 2 ч. 2 м.
Общий поток : 8582 Кбит/сек
Дата кодирования : UTC 2014-07-29 02:13:41
Программа кодирования : mkvmerge v6.9.1 ('Blue Panther') 64bit built on Apr 18 2014 18:23:38
Библиотека кодирования : libebml v1.3.0 + libmatroska v1.4.1
Видео
Идентификатор : 1
Формат : AVC
Формат/Информация : Advanced Video Codec
Профиль формата : High@L4.1
Параметр CABAC формата : Да
Параметр ReFrames формата : 9 кадров
Идентификатор кодека : V_MPEG4/ISO/AVC
Продолжительность : 2 ч. 2 м.
Битрейт : 5339 Кбит/сек
Ширина : 1278 пикселей
Высота : 720 пикселей
Соотношение сторон : 16:9
Режим частоты кадров : Постоянный
Частота кадров : 23,976 кадра/сек
Цветовое пространство : YUV
Субдискретизация насыщенности : 4:2:0
Битовая глубина : 8 бит
Тип развёртки : Прогрессивная
Бит/(Пиксели*Кадры) : 0.242
Размер потока : 4,58 Гбайт (62%)
Заголовок : BDRip -- STarankov
Библиотека кодирования : x264 core 142 r2431 ac76440
Настройки программы : cabac=1 / ref=9 / deblock=1:-1:-1 / analyse=0x3:0x113 / me=umh / subme=10 / psy=1 / psy_rd=1.00:0.15 / mixed_ref=1 / me_range=32 / chroma_me=1 / trellis=2 / 8x8dct=1 / cqm=0 / deadzone=21,11 / fast_pskip=0 / chroma_qp_offset=-3 / threads=6 / lookahead_threads=1 / sliced_threads=0 / nr=0 / decimate=1 / interlaced=0 / bluray_compat=0 / constrained_intra=0 / bframes=8 / b_pyramid=2 / b_adapt=2 / b_bias=0 / direct=1 / weightb=1 / open_gop=0 / weightp=2 / keyint=230 / keyint_min=23 / scenecut=40 / intra_refresh=0 / rc_lookahead=40 / rc=crf / mbtree=0 / crf=18.0 / qcomp=0.60 / qpmin=0 / qpmax=69 / qpstep=4 / vbv_maxrate=40000 / vbv_bufsize=50000 / crf_max=0.0 / nal_hrd=none / filler=0 / ip_ratio=1.40 / pb_ratio=1.30 / aq=1:1.00
Язык : English
Default : Да
Forced : Нет
Аудио #1
Идентификатор : 2
Формат : AC-3
Формат/Информация : Audio Coding 3
Расширение режима : CM (complete main)
Параметр Endianness формата : Big
Идентификатор кодека : A_AC3
Продолжительность : 2 ч. 2 м.
Вид битрейта : Постоянный
Битрейт : 192 Кбит/сек
Каналы : 2 канала
Расположение каналов : Front: L R
Частота : 48,0 КГц
Битовая глубина : 16 бит
Метод сжатия : С потерями
Размер потока : 169 Мбайт (2%)
Заголовок : DUB
Язык : Russian
Default : Да
Forced : Нет
Аудио #2
Идентификатор : 3
Формат : AC-3
Формат/Информация : Audio Coding 3
Расширение режима : CM (complete main)
Параметр Endianness формата : Big
Идентификатор кодека : A_AC3
Продолжительность : 2 ч. 2 м.
Вид битрейта : Постоянный
Битрейт : 384 Кбит/сек
Каналы : 6 каналов
Расположение каналов : Front: L C R, Side: L R, LFE
Частота : 48,0 КГц
Битовая глубина : 16 бит
Метод сжатия : С потерями
Размер потока : 337 Мбайт (4%)
Заголовок : MVO (Нева 1, СЕЕ)
Язык : Russian
Default : Нет
Forced : Нет
Аудио #3
Идентификатор : 4
Формат : AC-3
Формат/Информация : Audio Coding 3
Расширение режима : CM (complete main)
Параметр Endianness формата : Big
Идентификатор кодека : A_AC3
Продолжительность : 2 ч. 2 м.
Вид битрейта : Постоянный
Битрейт : 192 Кбит/сек
Каналы : 2 канала
Расположение каналов : Front: L R
Частота : 48,0 КГц
Битовая глубина : 16 бит
Метод сжатия : С потерями
Размер потока : 169 Мбайт (2%)
Заголовок : MVO (ОРТ/1 канал, SATRip)
Язык : Russian
Default : Нет
Forced : Нет
Аудио #4
Идентификатор : 5
Формат : AC-3
Формат/Информация : Audio Coding 3
Расширение режима : CM (complete main)
Параметр Endianness формата : Big
Идентификатор кодека : A_AC3
Продолжительность : 2 ч. 2 м.
Вид битрейта : Постоянный
Битрейт : 192 Кбит/сек
Каналы : 2 канала
Расположение каналов : Front: L R
Частота : 48,0 КГц
Битовая глубина : 16 бит
Метод сжатия : С потерями
Размер потока : 169 Мбайт (2%)
Заголовок : DVO (HTB+)
Язык : Russian
Default : Нет
Forced : Нет
Аудио #5
Идентификатор : 6
Формат : AC-3
Формат/Информация : Audio Coding 3
Расширение режима : CM (complete main)
Параметр Endianness формата : Big
Идентификатор кодека : A_AC3
Продолжительность : 2 ч. 2 м.
Вид битрейта : Постоянный
Битрейт : 192 Кбит/сек
Каналы : 2 канала
Расположение каналов : Front: L R
Частота : 48,0 КГц
Битовая глубина : 16 бит
Метод сжатия : С потерями
Размер потока : 169 Мбайт (2%)
Заголовок : AVO (Сергей Визгунов)
Язык : Russian
Default : Нет
Forced : Нет
Аудио #6
Идентификатор : 7
Формат : AC-3
Формат/Информация : Audio Coding 3
Расширение режима : CM (complete main)
Параметр Endianness формата : Big
Идентификатор кодека : A_AC3
Продолжительность : 2 ч. 2 м.
Вид битрейта : Постоянный
Битрейт : 640 Кбит/сек
Каналы : 6 каналов
Расположение каналов : Front: L C R, Side: L R, LFE
Частота : 48,0 КГц
Битовая глубина : 16 бит
Метод сжатия : С потерями
Размер потока : 562 Мбайт (7%)
Заголовок : AVO (Андрей Гаврилов)
Язык : Russian
Default : Нет
Forced : Нет
Аудио #7
Идентификатор : 8
Формат : AC-3
Формат/Информация : Audio Coding 3
Расширение режима : CM (complete main)
Параметр Endianness формата : Big
Идентификатор кодека : A_AC3
Продолжительность : 2 ч. 2 м.
Вид битрейта : Постоянный
Битрейт : 640 Кбит/сек
Каналы : 6 каналов
Расположение каналов : Front: L C R, Side: L R, LFE
Частота : 48,0 КГц
Битовая глубина : 16 бит
Метод сжатия : С потерями
Размер потока : 562 Мбайт (7%)
Заголовок : AVO (Василий Горчаков)
Язык : Russian
Default : Нет
Forced : Нет
Аудио #8
Идентификатор : 9
Формат : AC-3
Формат/Информация : Audio Coding 3
Расширение режима : CM (complete main)
Параметр Endianness формата : Big
Идентификатор кодека : A_AC3
Продолжительность : 2 ч. 2 м.
Вид битрейта : Постоянный
Битрейт : 640 Кбит/сек
Каналы : 6 каналов
Расположение каналов : Front: L C R, Side: L R, LFE
Частота : 48,0 КГц
Битовая глубина : 16 бит
Метод сжатия : С потерями
Размер потока : 562 Мбайт (7%)
Заголовок : Original
Язык : English
Default : Нет
Forced : Нет
Текст #1
Идентификатор : 10
Формат : UTF-8
Идентификатор кодека : S_TEXT/UTF8
Идентификатор кодека/Информация : UTF-8 Plain Text
Заголовок : русский
Язык : Russian
Default : Нет
Forced : Нет
Текст #2
Идентификатор : 11
Формат : UTF-8
Идентификатор кодека : S_TEXT/UTF8
Идентификатор кодека/Информация : UTF-8 Plain Text
Заголовок : английский
Default : Нет
Forced : Нет
---[Information] [28.07.2014 17:40:03] raw [info]: 1278x720p 1:1 @ 24000/1001 fps (cfr)
---[Information] [28.07.2014 17:40:03] x264 [info]: using SAR=1/1
---[Information] [28.07.2014 17:40:03] x264 [info]: using cpu capabilities: MMX2 SSE2Fast SSSE3 SSE4.2
---[Information] [28.07.2014 17:40:03] x264 [info]: profile High, level 4.1
---[Information] [29.07.2014 3:50:38] x264 [info]: frame I:1440 Avg QP:15.15 size: 94489
---[Information] [29.07.2014 3:50:38] x264 [info]: frame P:34442 Avg QP:16.17 size: 50653
---[Information] [29.07.2014 3:50:38] x264 [info]: frame B:140648 Avg QP:18.41 size: 22724
---[Information] [29.07.2014 3:50:38] x264 [info]: consecutive B-frames: 1.6% 1.6% 3.3% 21.4% 8.9% 41.2% 5.2% 14.8% 2.0%
---[Information] [29.07.2014 3:50:38] x264 [info]: mb I I16..4: 7.3% 81.2% 11.5%
---[Information] [29.07.2014 3:50:38] x264 [info]: mb P I16..4: 2.2% 29.7% 1.9% P16..4: 28.5% 23.2% 10.7% 0.0% 0.0% skip: 3.8%
---[Information] [29.07.2014 3:50:38] x264 [info]: mb B I16..4: 0.4% 3.4% 0.1% B16..8: 40.5% 17.8% 3.9% direct:10.4% skip:23.5% L0:47.5% L1:41.0% BI:11.4%
---[Information] [29.07.2014 3:50:38] x264 [info]: 8x8 transform intra:87.2% inter:54.0%
---[Information] [29.07.2014 3:50:38] x264 [info]: coded y,uvDC,uvAC intra: 90.8% 86.9% 67.4% inter: 36.7% 29.4% 3.1%
---[Information] [29.07.2014 3:50:38] x264 [info]: i16 v,h,dc,p: 43% 11% 12% 33%
---[Information] [29.07.2014 3:50:38] x264 [info]: i8 v,h,dc,ddl,ddr,vr,hd,vl,hu: 11% 9% 16% 8% 11% 11% 10% 11% 13%
---[Information] [29.07.2014 3:50:38] x264 [info]: i4 v,h,dc,ddl,ddr,vr,hd,vl,hu: 10% 8% 5% 10% 16% 15% 13% 12% 12%
---[Information] [29.07.2014 3:50:38] x264 [info]: i8c dc,h,v,p: 45% 22% 18% 14%
---[Information] [29.07.2014 3:50:38] x264 [info]: Weighted P-Frames: Y:5.2% UV:3.0%
---[Information] [29.07.2014 3:50:38] x264 [info]: ref P L0: 42.9% 7.5% 19.7% 8.4% 6.9% 5.0% 4.4% 2.6% 2.5% 0.2% 0.0%
---[Information] [29.07.2014 3:50:38] x264 [info]: ref B L0: 64.5% 14.7% 8.2% 4.5% 3.4% 2.8% 1.5% 0.4%
---[Information] [29.07.2014 3:50:38] x264 [info]: ref B L1: 90.1% 9.9%
---[Information] [29.07.2014 3:50:38] x264 [info]: kb/s:5516.12
---[Information] [29.07.2014 3:50:38] encoded 176530 frames, 4.82 fps, 5516.12 kb/s
--[Information] [29.07.2014 3:50:40] Final statistics
---[Information] [29.07.2014 3:50:40] Constant Quality Mode: Quality 18 computed...
---[Information] [29.07.2014 3:50:40] Video Bitrate Obtained (approximate): 5517 kbit/s
--[Information] [29.07.2014 3:50:40] MediaInfo
---[Information] [29.07.2014 3:50:40] File: D:RipJa ljublju neprijatnosti.1994.BDRipJa ljublju neprijatnosti.1994.BDRip.720p.mkv

Скриншоты

[Профиль] [ЛС]
Кто просматривает тему:

Показать сообщения:    

Текущее время: Сегодня 16:56

Часовой пояс: GMT



Вы не можете начинать темы
Вы не можете отвечать на сообщения
Вы не можете редактировать свои сообщения
Вы не можете удалять свои сообщения
Вы не можете голосовать в опросах
Вы не можете прикреплять файлы к сообщениям
Вы не можете скачивать файлы