Я – легенда / I Am Legend (2007) BDRip 1080p | D, Р, А | Альтернативная версия

 
Автор Сообщение

Russian Mafia ®

Пол:

Стаж: 1 год 8 месяцев

Сообщений: 4247



Награды: 10 (Подробнее)

Mega Seeder 4 (Количество: 1) Top Releaser 2 (Количество: 1) Top Releaser 3 (Количество: 1)
Торрент-статистика

Создавать темы 18-Авг-2016 06:38

[Цитировать]

Я – легенда / I Am Legend
Страна: США
Производство: Warner Bros. Pictures, Village Roadshow Pictures, Original Film, 3 Arts Entertainment, Weed Road Pictures
Год выпуска: 2007
Жанр: ужасы, фантастика, драма
Продолжительность: 01:43:54
Режиссер: Френсис Лоуренс
Авторы сценария: Марк Протосевич, Акива Голдсман, Джон Уильям Коррингтон
В ролях: Уилл Смит, Алиси Брага, Чарли Тахэн, Салли Ричардсон-Уитфилд, Уиллоу Смит, Даррел Фостер, Эйприл Грэйс, Дэш Майок
Описание: Адаптация одноимённого романа Ричарда Мэтисона о неизвестном вирусе, унёсшем жизни половины населения земного шара, а остальную половину превратившего в вампиров. Сюжет строится вокруг единственного уцелевшего человека с необъяснимым иммунитетом, ночами держащего бесконечную осаду упырей, а днём - пытающегося найти противоядие и выяснить причины эпидемии...

Перевод: Профессиональный (полное дублирование) + Профессиональный (многоголосый) | Киномания + 2х Авторский (одноголосый)
Субтитры: русские (full + forced), украинские (full + forced), английские (full)-Качество: BDRip 1080p
Формат: МКV
Видео кодек: AVC
Аудио кодек: АС3
Видео: 1920x798 (2.40:1), 23.976 fps, MPEG-4 AVC ~7 900 kbps avg
Аудио №1: 48.0 kHz, AC3 Dolby Digital, 3/2 (L,C,R,l,r) + LFE ch, ~448 kbps | DUB / RUS + вставки от Киномания
Аудио №2: 48.0 kHz, AC3 Dolby Digital, 3/2 (L,C,R,l,r) + LFE ch, ~448 kbps | DUB / UKR + вставки от Киномания
Аудио №3: 48.0 kHz, AC3 Dolby Digital, 3/2 (L,C,R,l,r) + LFE ch, ~384 kbps | MVO / Киномания
Аудио №4: 48.0 kHz, AC3 Dolby Digital, 3/2 (L,C,R,l,r) + LFE ch, ~384 kbps | АVO / Юрий Сербин
Аудио №5: 48.0 kHz, AC3 Dolby Digital, 3/2 (L,C,R,l,r) + LFE ch, ~384 kbps | АVO / Андрей Гаврилов
Аудио №6: 48.0 kHz, AC3 Dolby Digital, 3/2 (L,C,R,l,r) + LFE ch, ~640 kbps | ENG
Формат субтитров: UTF-8 Plain Text
Бюджет: $150 000 000
Дата премьеры (мир): 5 декабря 2007
Дата премьеры (мир): 7 февраля 2008, «Каро-Премьер»
релиз на Blu-Ray: 20 января 2009, «Юниверсал Пикчерс Рус»
релиз на DVD: 15 июня 2009, «Юниверсал Пикчерс Рус»
Релиз от:

Театральная и Альтернативная версии

1) К своему удивлению, Невилл видит, что последний вариант вакцины действует — женщина вылечена. Он берёт у вылеченной женщины кровь и передаёт её Анне, затем помогает Анне и Итану спрятаться в старой каминной трубе, и бросается на прорвавшихся заражённых с гранатой, жертвуя собой ради Анны, Итана и остального человечества. Анна с Итаном добирается до Вермонта и обнаруживают обнесённую стеной колонию незаражённых людей, и она передаёт им лекарство. В своём монологе она утверждает, что лекарство Невилла позволит человечеству выжить, сделав его (Невилла) легендой.
2) Доктор видит бабочку на стекле и так как до этого он видел татуировку на плече зараженной, до него доходит смысл преследования его нелюдьми. Невилл открывает дверь и отдаёт предводителю зараженную пленную, которая, судя по всему, была «самкой» альфа-самца. Последние не трогают их, после чего Невилл, Анна и Итан покидают на машине заражённый город

Media Info

General
UniqueID : 242595413646401263838239301450508095393 (0xB6822D59C8F953999BB323F6487D4FA1)
Format : Matroska
File size : 7.69 GiB
Duration : 1h 43mn
Overall bit rate : 10.6 Mbps
Encoded date : UTC 2011-01-19 13:30:23
Writing application : mkvmerge v4.4.0 ('Die Wiederkehr') built on Oct 31 2010 21:52:48
Writing library : libebml v1.0.0 + libmatroska v1.0.0
Video
ID : 1
Format : AVC
Format/Info : Advanced Video Codec
Format profile : High@L4.1
Format settings, CABAC : Yes
Format settings, ReFrames : 5 frames
Codec ID : V_MPEG4/ISO/AVC
Duration : 1h 43mn
Bit rate : 7 900 Kbps
Width : 1 920 pixels
Height : 798 pixels
Display aspect ratio : 2.40:1
Frame rate : 23.976 fps
Color space : YUV
Chroma subsampling : 4:2:0
Bit depth : 8 bits
Scan type : Progressive
Bits/(Pixel*Frame) : 0.215
Stream size : 5.58 GiB (73%)
Writing library : x264 core 112 r1867 22bfd31
Encoding settings : cabac=1 / ref=5 / deblock=1:-1:-1 / analyse=0x3:0x113 / me=umh / subme=9 / psy=1 / psy_rd=0.80:0.00 / mixed_ref=1 / me_range=16 / chroma_me=1 / trellis=2 / 8x8dct=1 / cqm=0 / deadzone=21,11 / fast_pskip=0 / chroma_qp_offset=-2 / threads=3 / sliced_threads=0 / nr=0 / decimate=0 / interlaced=0 / constrained_intra=0 / bframes=4 / b_pyramid=2 / b_adapt=2 / b_bias=0 / direct=3 / weightb=1 / open_gop=0 / weightp=2 / keyint=250 / keyint_min=23 / scenecut=40 / intra_refresh=0 / rc_lookahead=75 / rc=2pass / mbtree=1 / bitrate=7900 / ratetol=1.0 / qcomp=0.60 / qpmin=0 / qpmax=51 / qpstep=4 / cplxblur=20.0 / qblur=0.5 / ip_ratio=1.40 / aq=2:0.80
Language : English
Audio #1
ID : 2
Format : AC-3
Format/Info : Audio Coding 3
Mode extension : CM (complete main)
Codec ID : A_AC3
Duration : 1h 43mn
Bit rate mode : Constant
Bit rate : 448 Kbps
Channel(s) : 6 channels
Channel positions : Front: L C R, Side: L R, LFE
Sampling rate : 48.0 KHz
Bit depth : 16 bits
Compression mode : Lossy
Stream size : 333 MiB (4%)
Title : Rus Dub AC3 448 @ 5.1
Language : Russian
Audio #2
ID : 3
Format : AC-3
Format/Info : Audio Coding 3
Mode extension : CM (complete main)
Codec ID : A_AC3
Duration : 1h 43mn
Bit rate mode : Constant
Bit rate : 448 Kbps
Channel(s) : 6 channels
Channel positions : Front: L C R, Side: L R, LFE
Sampling rate : 48.0 KHz
Bit depth : 16 bits
Compression mode : Lossy
Stream size : 333 MiB (4%)
Title : Ukr Dub AC3 448 @ 5.1
Language : Ukrainian
Audio #3
ID : 4
Format : AC-3
Format/Info : Audio Coding 3
Mode extension : CM (complete main)
Codec ID : A_AC3
Duration : 1h 43mn
Bit rate mode : Constant
Bit rate : 384 Kbps
Channel(s) : 6 channels
Channel positions : Front: L C R, Side: L R, LFE
Sampling rate : 48.0 KHz
Bit depth : 16 bits
Compression mode : Lossy
Stream size : 285 MiB (4%)
Title : Kinomania AC3 384 @ 5.1
Language : Russian
Audio #4
ID : 5
Format : AC-3
Format/Info : Audio Coding 3
Mode extension : CM (complete main)
Codec ID : A_AC3
Duration : 1h 43mn
Bit rate mode : Constant
Bit rate : 384 Kbps
Channel(s) : 6 channels
Channel positions : Front: L C R, Side: L R, LFE
Sampling rate : 48.0 KHz
Bit depth : 16 bits
Compression mode : Lossy
Stream size : 285 MiB (4%)
Title : Serbin AC3 384 @ 5.1
Language : Russian
Audio #5
ID : 6
Format : AC-3
Format/Info : Audio Coding 3
Mode extension : CM (complete main)
Codec ID : A_AC3
Duration : 1h 43mn
Bit rate mode : Constant
Bit rate : 384 Kbps
Channel(s) : 6 channels
Channel positions : Front: L C R, Side: L R, LFE
Sampling rate : 48.0 KHz
Bit depth : 16 bits
Compression mode : Lossy
Stream size : 285 MiB (4%)
Title : Gavrilov AC3 384 @ 5.1
Audio #6
ID : 7
Format : AC-3
Format/Info : Audio Coding 3
Mode extension : CM (complete main)
Codec ID : A_AC3
Duration : 1h 43mn
Bit rate mode : Constant
Bit rate : 640 Kbps
Channel(s) : 6 channels
Channel positions : Front: L C R, Side: L R, LFE
Sampling rate : 48.0 KHz
Bit depth : 16 bits
Compression mode : Lossy
Stream size : 476 MiB (6%)
Title : Original eng AC3 640 @ 5.1
Text #1
ID : 8
Format : UTF-8
Codec ID : S_TEXT/UTF8
Codec ID/Info : UTF-8 Plain Text
Title : Forced
Language : Russian
Text #2
ID : 9
Format : UTF-8
Codec ID : S_TEXT/UTF8
Codec ID/Info : UTF-8 Plain Text
Title : Forced
Language : Ukrainian
Text #3
ID : 10
Format : UTF-8
Codec ID : S_TEXT/UTF8
Codec ID/Info : UTF-8 Plain Text
Title : Full
Language : Russian
Text #4
ID : 11
Format : UTF-8
Codec ID : S_TEXT/UTF8
Codec ID/Info : UTF-8 Plain Text
Title : Full
Language : Ukrainian
Text #5
ID : 12
Format : UTF-8
Codec ID : S_TEXT/UTF8
Codec ID/Info : UTF-8 Plain Text
Title : Full
Language : English
Menu
00:00:00.000 : en:00:00:00.000
00:02:13.133 : en:00:02:13.133
00:07:58.478 : en:00:07:58.478
00:12:09.729 : en:00:12:09.729
00:15:17.750 : en:00:15:17.750
00:18:22.268 : en:00:18:22.268
00:23:24.570 : en:00:23:24.570
00:26:44.269 : en:00:26:44.269
00:31:51.409 : en:00:31:51.409
00:34:17.722 : en:00:34:17.722
00:38:06.451 : en:00:38:06.451
00:39:36.708 : en:00:39:36.708
00:44:24.662 : en:00:44:24.662
00:49:12.449 : en:00:49:12.449
00:54:16.086 : en:00:54:16.086
00:57:15.432 : en:00:57:15.432
01:00:02.098 : en:01:00:02.098
01:03:02.112 : en:01:03:02.112
01:04:51.221 : en:01:04:51.221
01:09:39.175 : en:01:09:39.175
01:11:42.465 : en:01:11:42.465
01:15:33.863 : en:01:15:33.863
01:19:07.743 : en:01:19:07.743
01:21:43.899 : en:01:21:43.899
01:26:44.533 : en:01:26:44.533
01:28:56.998 : en:01:28:56.998
01:34:28.162 : en:01:34:28.162

Скриншоты

[Профиль] [ЛС]
Кто просматривает тему:

Показать сообщения:    

Текущее время: Сегодня 14:35

Часовой пояс: GMT



Вы не можете начинать темы
Вы не можете отвечать на сообщения
Вы не можете редактировать свои сообщения
Вы не можете удалять свои сообщения
Вы не можете голосовать в опросах
Вы не можете прикреплять файлы к сообщениям
Вы не можете скачивать файлы