Я - легенда / I Am Legend (Френсис Лоуренс)[2007, фантастика, триллер, драма,BDRip 1080p] | Theatrical version

 
Автор Сообщение

sergej644 ®

Пол:

Стаж: 4 года 11 месяцев

Сообщений: 6046

Откуда: Soviet Union



Награды: Нет

Торрент-статистика

Создавать темы 15-Ноя-2014 21:51

[Цитировать]

--Я - легенда / I Am Legend
Информация о фильме
Название: Я - легенда
Оригинальное название: I Am Legend
Год выхода: 2007
Жанр: фантастика, триллер, драма
Режиссер: Френсис Лоуренс

В ролях: Уилл Смит (Will Smith), Алиси Брага (Alice Braga), Чарли Тахэн (Charlie Tahan), Салли Ричардсон-Уитфилд (Salli Richardson-Whitfield), Уиллоу Смит (Willow Smith), Даррел Фостер (Darrell Foster), Эйприл Грэйс (April Grace), Дэш Майок (Dash Mihok), Джоанна Нумата (Joanna Numata), Эбби (Abby), Kona, Сэмюэл Глен (Samuel Glen), Джеймс Майкл МакКоли (James Michael McCauley), Марин Айрлэнд (Marin Ireland), Педро Можица (Pedro Mojica), Энтони С. Мацца (Anthony C. Mazza), Стив Кирбус (Steve Cirbus), Калиста Хилл (Calista Hill), Габриэлла Хилл (Gabriella Hill), Мадлен Хилл (Madeleine Hill)
О фильме:
Адаптация одноименного романа Ричарда Мэтисона о неизвестном вирусе, унесшем жизни половины населения земного шара, а остальную половину превратившего в вампиров. Сюжет строится вокруг единственного уцелевшего человека с необъяснимым иммунитетом, ночами держащего бесконечную осаду упырей, а днем пытающегося найти противоядие и выяснить причины эпидемии.


Страна: США
Продолжительность: 01:40:31
Перевод: Профессиональный (дублированный)
Файл
Кодек: H.264
Качество: BDRip 1080p
Видео: 1920x800 (2.40:1), 23.976 fps, AVC, 10.9 Mbps
Звук: AC3, 448 Kbps, 48.0 KHz, 6 ch
Субтитры: Russian , english (srt)
Отдельно на народ.ру:
AC3, 448 Kbps, 48.0 KHz, 6 ch(MVO)
AC3, 448 Kbps, 48.0 KHz, 6 ch (Гланц и Королёва)
AC3, 384Kbps, 48.0 KHz, 6 ch (AVO . Ю.Сербин )

MI:

Общее
Уникальный идентификатор                 : 250592689765101581389316944342428063820 (0xBC86658170178E0DAFE9443AE912984C)
Полное имя                               : E:торрентI Am Legend ( 2007)BDRip-F.HD.mkv
Формат                                   : Matroska
Версия формата                           : Version 2
Размер файла                             : 7,95 Гбайт
Продолжительность                        : 1 ч. 40 м.
Общий поток                              : 11,3 Мбит/сек
Дата кодирования                         : UTC 2012-08-01 19:00:10
Программа кодирования                    : mkvmerge v5.7.0 ('The Whirlwind') built on Jul  8 2012 20:08:51
Библиотека кодирования                   : libebml v1.2.3 + libmatroska v1.3.0
Видео
Идентификатор                            : 1
Формат                                   : AVC
Формат/Информация                        : Advanced Video Codec
Профиль формата                          : High@L4.1
Параметр CABAC формата                   : Да
Параметр ReFrames формата                : 5 кадров
Идентификатор кодека                     : V_MPEG4/ISO/AVC
Продолжительность                        : 1 ч. 40 м.
Битрейт                                  : 10,9 Мбит/сек
Ширина                                   : 1920 пикселей
Высота                                   : 800 пикселей
Соотношение сторон                       : 2,40:1
Частота кадров                           : 23,976 кадра/сек
Цветовое пространство                    : YUV
Субдискретизация насыщенности            : 4:2:0
Битовая глубина                          : 8 бит
Тип развёртки                            : Прогрессивная
Бит/(Пиксели*Кадры)                      : 0.295
Размер потока                            : 7,48 Гбайт (94%)
Библиотека кодирования                   : x264 core 125 r2200 999b753
Настройки программы                      : cabac=1 / ref=5 / deblock=1:-2:-1 / analyse=0x3:0x113 / me=umh / subme=10 / psy=1 / psy_rd=1.00:0.10 / mixed_ref=1 / me_range=32 / chroma_me=1 / trellis=2 / 8x8dct=1 / cqm=0 / deadzone=21,11 / fast_pskip=0 / chroma_qp_offset=-1 / threads=6 / lookahead_threads=1 / sliced_threads=0 / nr=0 / decimate=1 / interlaced=0 / bluray_compat=0 / constrained_intra=0 / bframes=8 / b_pyramid=2 / b_adapt=2 / b_bias=0 / direct=3 / weightb=1 / open_gop=0 / weightp=2 / keyint=240 / keyint_min=23 / scenecut=40 / intra_refresh=0 / rc=2pass / mbtree=0 / bitrate=10875 / ratetol=1.0 / qcomp=0.70 / qpmin=10 / qpmax=51 / qpstep=4 / cplxblur=20.0 / qblur=0.5 / ip_ratio=1.40 / pb_ratio=1.30 / aq=2:1.00
Язык                                     : English
Default                                  : Да
Forced                                   : Нет
Основные цвета                           : BT.709-5, BT.1361, IEC 61966-2-4, SMPTE RP177
Характеристики трансфера                 : BT.709-5, BT.1361
Коэффициенты матрицы                     : BT.709-5, BT.1361, IEC 61966-2-4 709, SMPTE RP177
Аудио
Идентификатор                            : 2
Формат                                   : AC-3
Формат/Информация                        : Audio Coding 3
Расширение режима                        : CM (complete main)
Параметр Endianness формата              : Big
Идентификатор кодека                     : A_AC3
Продолжительность                        : 1 ч. 40 м.
Вид битрейта                             : Постоянный
Битрейт                                  : 448 Кбит/сек
Каналы                                   : 6 каналов
Расположение каналов                     : Front: L C R, Side: L R, LFE
Частота                                  : 48,0 КГц
Битовая глубина                          : 16 бит
Метод сжатия                             : С потерями
Размер потока                            : 322 Мбайт (4%)
Язык                                     : Russian
Default                                  : Да
Forced                                   : Нет
Текст #1
Идентификатор                            : 3
Формат                                   : UTF-8
Идентификатор кодека                     : S_TEXT/UTF8
Идентификатор кодека/Информация          : UTF-8 Plain Text
Язык                                     : Russian
Default                                  : Нет
Forced                                   : Нет
Текст #2
Идентификатор                            : 4
Формат                                   : UTF-8
Идентификатор кодека                     : S_TEXT/UTF8
Идентификатор кодека/Информация          : UTF-8 Plain Text
Язык                                     : English
Default                                  : Нет
Forced                                   : Нет
Меню
00:00:00.000                             : en:Chapter 01
00:02:16.135                             : en:Chapter 02
00:07:58.478                             : en:Chapter 03
00:12:09.395                             : en:Chapter 04
00:15:17.750                             : en:Chapter 05
00:18:22.267                             : en:Chapter 06
00:23:24.569                             : en:Chapter 07
00:26:44.268                             : en:Chapter 08
00:31:51.409                             : en:Chapter 09
00:34:17.722                             : en:Chapter 10
00:37:47.931                             : en:Chapter 11
00:39:18.189                             : en:Chapter 12
00:44:06.143                             : en:Chapter 13
00:48:52.929                             : en:Chapter 14
00:53:14.858                             : en:Chapter 15
00:56:56.913                             : en:Chapter 16
00:59:43.579                             : en:Chapter 17
01:02:43.092                             : en:Chapter 18
01:04:32.702                             : en:Chapter 19
01:09:20.656                             : en:Chapter 20
01:11:23.946                             : en:Chapter 21
01:17:40.822                             : en:Chapter 22
01:20:16.978                             : en:Chapter 23
01:24:13.046                             : en:Chapter 24
01:28:01.776                             : en:Chapter 25
01:29:50.051                             : en:Chapter 26
01:31:50.004                             : en:Chapter 27
01:40:31.400                             : en:Chapter 28

Скриншоты


--
[Профиль] [ЛС]
Кто просматривает тему:

Показать сообщения:    

Текущее время: Сегодня 03:22

Часовой пояс: GMT



Вы не можете начинать темы
Вы не можете отвечать на сообщения
Вы не можете редактировать свои сообщения
Вы не можете удалять свои сообщения
Вы не можете голосовать в опросах
Вы не можете прикреплять файлы к сообщениям
Вы не можете скачивать файлы