Я знаю, кто убил меня / I Know Who Killed Me (Крис Сивертсон / Chris Sivertson) [2007 г., США, триллер, криминал, детектив, HDRip-AVC] Dub + Original (Eng) + Sub (Rus, Eng, Eng SDH)

 
Автор Сообщение

TorrentFilm ®

Пол:

Стаж: 2 года

Сообщений: 7741



Награды: Нет

Торрент-статистика

Создавать темы 29-Июн-2015 00:06

[Цитировать]

-Я знаю, кто убил меня / I Know Who Killed Me--Год выпуска: 2007Страна: СШАЖанр: триллер, криминал, детектив-Продолжительность: 01:46:20Перевод: Профессиональный (дублированный) [лицензия]Субтитры: (русские, английские, английские SDH)Оригинальная аудиодорожка: английская--Режиссер:Крис Сивертсон / Chris Sivertson-В ролях:Линдсей Лохан, Джулия Ормонд, Бонни Ааронс, Майкл Адлер, Гарсель Бюва, Арт Белл, Стэйси Дэниэл, Майкл Эспарза, Дэвид Фильоли, Джейн Гэлловэй Хейтц, Спенсер Гаррет, Брайан Джерати, Корнелия Гест, Меган Хеннинг-Описание:
Молодую и талантливую девушку по имени Обри Флеминг похищает садист-убийца. Пробыв в заточении две недели, девушке удается бежать. Однако, когда она оказывается в безопасности, среди своих родных, она начинает утверждать, что Обри Флеминг по-прежнему находится в руках маньяка, а она сама вовсе не та, за кого они все ее принимают. И что на самом деле ее зовут Дакота Мосс.
Тем не менее, верить девушке никто не спешит, ведь, все знают, что Дакота Мосс — это персонаж одного из рассказов Обри. И все же ситуация выглядит подозрительно, и списать поведение девушки на посттравматический синдром не так-то просто.
--Дополнительная информация:- -Сэмпл Рип НЕ совместим с бытовыми DVD-проигрывателями.--Качество видео: HDRip-AVC (Исходник: BDRip 1080p)
Формат видео: MKV
Видео: AVC (x264), 1152x480 (2.4:1), 23.976 fps, ~2041 kbps avg, 0.154 bit/pixel
Аудио №1: 48 kHz, AC3 Dolby Digital, 3/2 (L,C,R,l,r) + LFE ch, 448.00 kbps (Дубляж)
Аудио №2: 48 kHz, AC3 Dolby Digital, 3/2 (L,C,R,l,r) + LFE ch, 448.00 kbps (Оригинал)-

MediaInfo/loglog

x264 [info]: frame I:1107 Avg QP:15.79 size: 62472
x264 [info]: frame P:36675 Avg QP:17.88 size: 20656
x264 [info]: frame B:115192 Avg QP:18.79 size: 6951
x264 [info]: consecutive B-frames: 1.7% 2.4% 6.1% 56.2% 12.1% 15.1% 2.3% 2.2% 0.6% 0.5% 0.4% 0.5%
x264 [info]: mb I I16..4: 9.1% 73.5% 17.4%
x264 [info]: mb P I16..4: 1.0% 7.3% 1.0% P16..4: 31.1% 36.3% 11.5% 0.0% 0.0% skip:11.7%
x264 [info]: mb B I16..4: 0.1% 0.8% 0.1% B16..8: 31.7% 17.8% 2.9% direct: 4.8% skip:41.8% L0:41.8% L1:45.9% BI:12.3%
x264 [info]: 8x8 transform intra:77.7% inter:58.0%
x264 [info]: direct mvs spatial:97.4% temporal:2.6%
x264 [info]: coded y,uvDC,uvAC intra: 79.6% 78.1% 61.9% inter: 20.5% 19.4% 9.2%
x264 [info]: i16 v,h,dc,p: 39% 13% 10% 38%
x264 [info]: i8 v,h,dc,ddl,ddr,vr,hd,vl,hu: 8% 6% 12% 10% 14% 13% 12% 12% 13%
x264 [info]: i4 v,h,dc,ddl,ddr,vr,hd,vl,hu: 12% 7% 12% 9% 14% 13% 12% 10% 12%
x264 [info]: i8c dc,h,v,p: 39% 26% 18% 17%
x264 [info]: Weighted P-Frames: Y:6.0% UV:4.1%
x264 [info]: ref P L0: 51.1% 6.7% 15.5% 7.6% 5.7% 4.4% 3.6% 2.1% 1.7% 1.4% 0.2% 0.0%
x264 [info]: ref B L0: 73.6% 12.9% 5.4% 2.8% 1.9% 1.5% 1.1% 0.5% 0.3%
x264 [info]: ref B L1: 94.4% 5.6%
x264 [info]: kb/s:2040.58
General
Unique ID : 250355720879254915629257212057083286179 (0xBC58C20999E0E6C3A57A2ADE22F992A3)
Complete name :\Ya_znau_kto_menya_ubil__(2007).HDRip-AVC.ac3.Dub.Eng.Sub.[All.Films][RG].mkv
Format : Matroska
Format version : Version 4 / Version 2
File size : 2.18 GiB
Duration : 1h 46mn
Overall bit rate : 2 938 Kbps
Movie name : Я знаю, кто убил меня / I Know Who Killed Me (2007) HDRip-AVC | [torrentfilm.net][All.Films][RG]
Encoded date : UTC 2015-06-27 16:01:50
Writing application : mkvmerge v7.5.0 ('Glass Culture') 32bit built on Jan 10 2015 09:41:31
Writing library : libebml v1.3.1 + libmatroska v1.4.2
DURATION : 01:46:20.352000000
NUMBER_OF_FRAMES : 199386
NUMBER_OF_BYTES : 357299712
_STATISTICS_WRITING_APP : mkvmerge v7.5.0 ('Glass Culture') 32bit built on Jan 10 2015 09:41:31
_STATISTICS_WRITING_DATE_UT : 2015-06-27 16:01:50
_STATISTICS_TAGS : BPS DURATION NUMBER_OF_FRAMES NUMBER_OF_BYTES
Video
ID : 1
Format : AVC
Format/Info : Advanced Video Codec
Format profile : High@L4.1
Format settings, CABAC : Yes
Format settings, ReFrames : 10 frames
Codec ID : V_MPEG4/ISO/AVC
Duration : 1h 46mn
Bit rate : 2 041 Kbps
Width : 1 152 pixels
Height : 480 pixels
Display aspect ratio : 2.40:1
Frame rate mode : Constant
Frame rate : 23.976 fps
Color space : YUV
Chroma subsampling : 4:2:0
Bit depth : 8 bits
Scan type : Progressive
Bits/(Pixel*Frame) : 0.154
Stream size : 1.47 GiB (68%)
Writing library : x264 core 144 r2525 40bb568
Encoding settings : cabac=1 / ref=10 / deblock=1:-2:-1 / analyse=0x3:0x113 / me=umh / subme=11 / psy=1 / psy_rd=1.10:0.05 / mixed_ref=1 / me_range=42 / chroma_me=1 / trellis=2 / 8x8dct=1 / cqm=0 / deadzone=21,11 / fast_pskip=0 / chroma_qp_offset=-3 / threads=6 / lookahead_threads=1 / sliced_threads=0 / nr=0 / decimate=0 / interlaced=0 / bluray_compat=0 / constrained_intra=0 / bframes=11 / b_pyramid=2 / b_adapt=2 / b_bias=0 / direct=3 / weightb=1 / open_gop=0 / weightp=2 / keyint=240 / keyint_min=23 / scenecut=40 / intra_refresh=0 / rc_lookahead=60 / rc=2pass / mbtree=0 / bitrate=2041 / ratetol=1.0 / qcomp=0.60 / qpmin=10 / qpmax=51 / qpstep=4 / cplxblur=20.0 / qblur=0.5 / vbv_maxrate=50000 / vbv_bufsize=62500 / nal_hrd=none / filler=0 / ip_ratio=1.30 / pb_ratio=1.20 / aq=3:1.00 / zones=147400,152974,q=30
Language : English
Default : Yes
Forced : No
DURATION : 01:46:20.291000000
NUMBER_OF_FRAMES : 152974
NUMBER_OF_BYTES : 1627437403
_STATISTICS_WRITING_APP : mkvmerge v7.5.0 ('Glass Culture') 32bit built on Jan 10 2015 09:41:31
_STATISTICS_WRITING_DATE_UT : 2015-06-27 16:01:50
_STATISTICS_TAGS : BPS DURATION NUMBER_OF_FRAMES NUMBER_OF_BYTES
Audio #1
ID : 2
Format : AC-3
Format/Info : Audio Coding 3
Mode extension : CM (complete main)
Format settings, Endianness : Big
Codec ID : A_AC3
Duration : 1h 46mn
Bit rate mode : Constant
Bit rate : 448 Kbps
Channel(s) : 6 channels
Channel positions : Front: L C R, Side: L R, LFE
Sampling rate : 48.0 KHz
Bit depth : 16 bits
Compression mode : Lossy
Stream size : 341 MiB (15%)
Title : Дубляж
Language : Russian
Default : No
Forced : No
Audio #2
ID : 3
Format : AC-3
Format/Info : Audio Coding 3
Mode extension : CM (complete main)
Format settings, Endianness : Big
Codec ID : A_AC3
Duration : 1h 46mn
Bit rate mode : Constant
Bit rate : 448 Kbps
Channel(s) : 6 channels
Channel positions : Front: L C R, Side: L R, LFE
Sampling rate : 48.0 KHz
Bit depth : 16 bits
Compression mode : Lossy
Stream size : 341 MiB (15%)
Title : Оригинал
Language : English
Default : No
Forced : No
Text #1
ID : 4
Format : UTF-8
Codec ID : S_TEXT/UTF8
Codec ID/Info : UTF-8 Plain Text
Title : Full
Language : Russian
Default : No
Forced : No
Text #2
ID : 5
Format : UTF-8
Codec ID : S_TEXT/UTF8
Codec ID/Info : UTF-8 Plain Text
Title : Full
Language : English
Default : No
Forced : No
Text #3
ID : 6
Format : UTF-8
Codec ID : S_TEXT/UTF8
Codec ID/Info : UTF-8 Plain Text
Title : Full SDH
Language : English
Default : No
Forced : NoFAQ по просмотру MKV/h.264/AAC

Сравнение

http://torrentfilm.net/forum/viewtopic.php?t=4452263 (ASP) -> http://screenshotcomparison.com/comparison/132756
http://torrentfilm.net/forum/viewtopic.php?t=973730 (AVC) - > раздача не скачивается несколько дней (0 %).
[Профиль] [ЛС]

Создавать темы 06-Авг-2015 22:25 (спустя 1 месяц 7 дней)

Топик был перенесен из форума Фильмы до 2014 года в форум Фильмы до 2012 года
sergej644
 
Кто просматривает тему:

Показать сообщения:    

Текущее время: Сегодня 04:24

Часовой пояс: GMT



Вы не можете начинать темы
Вы не можете отвечать на сообщения
Вы не можете редактировать свои сообщения
Вы не можете удалять свои сообщения
Вы не можете голосовать в опросах
Вы не можете прикреплять файлы к сообщениям
Вы не можете скачивать файлы