Я закопаю тебя / Je te survivrai (Сильвестр Сбилье / Sylvestre Sbille) [2014, Бельгия, Франция, комедия, WEBRip] MVO

 
Автор Сообщение

Создавать темы 13-Июл-2014 16:36

Я закопаю тебяJe te survivra_____________________________________________________________________ Год выпуска: 2014
Производство: Бельгия, Франция
Жанр: комедия
Перевод: Профессиональный (многоголосый закадровый)
Субтитры: Отсутствуют
Оригинальная дорожка: Отсутствует
Продолжительность: 01:28:09
Режиссер: Сильвестр Сбилье
В ролях: Джонатан Цассаи, Бен Рига, Лорен Капеллуто, Таня Гарбарски, Давид Муржиа, Марго Леду, Эмма Дюпон, Пьер Хендрикс
Описание: Успешный риэлтор Джо, не знающий промахов в своем ремесле, мечтает о финальном аккорде - перекупить у полусумасшедшей бабки-соседки участок земли, где стоит ее хибара, чтобы обеспечить свою старость. Владелицу этого участка он найти не может, иначе та бы помогла ему совершить сделку. В попытке выжить бабку Джо решает разрушить колодец, где та берет воду для своего нищенского хозяйства и единственного пса. При этом он сам попадает в ловушку, где переживает не самые лучшие времена, в корне меняя свой взгляд на жизнь, родных и друзей, на истинные человеческие качества, которые могут скрываться под невзрачной оболочкой.
Качество видео: WEBRip [сэмпл]
Видеокодек: XviD
Аудиокодек: AC3
Видео: 720x304 (2.37:1), 30 fps, XviD build 50, 2018 kbps avg, 0.31 bit/pixel
Аудио: 48 kHz, AC3 Dolby Digital, 2/0 (L,R) ch, 192 kbps

Скриншоты

MediaInfo


Общее
Полное имя : D:\Ya.zakopau.tebya.WEBRip.avi
Формат : AVI
Формат/Информация : Audio Video Interleave
Размер файла : 1,37 Гбайт
Продолжительность : 1 ч. 28 м.
Общий поток : 2222 Кбит/сек
Программа кодирования : VirtualDubMod 1.5.10.3 | www.virtualdub-fr.org || (build 2550/release)
Библиотека кодирования : VirtualDubMod build 2550/release
Видео
Идентификатор : 0
Формат : MPEG-4 Visual
Профиль формата : Advanced Simple@L5
Параметр BVOP формата : 2
Параметр QPel формата : Нет
Параметр GMC формата : Без точки перехода
Параметр матрицы формата : Default (MPEG)
Идентификатор кодека : XVID
Идентификатор кодека/Подсказка : XviD
Продолжительность : 1 ч. 28 м.
Битрейт : 2018 Кбит/сек
Ширина : 720 пикселей
Высота : 304 пикселя
Соотношение сторон : 2,35:1
Частота кадров : 30,000 кадров/сек
Цветовое пространство : YUV
Субдискретизация насыщенности : 4:2:0
Битовая глубина : 8 бит
Тип развёртки : Прогрессивная
Метод сжатия : С потерями
Бит/(Пиксели*Кадры) : 0.307
Размер потока : 1,24 Гбайт (91%)
Библиотека кодирования : XviD 1.2.1 (UTC 2008-12-04)
Аудио
Идентификатор : 1
Формат : AC-3
Формат/Информация : Audio Coding 3
Расширение режима : CM (complete main)
Параметр Endianness формата : Big
Идентификатор кодека : 2000
Продолжительность : 1 ч. 28 м.
Вид битрейта : Постоянный
Битрейт : 192 Кбит/сек
Каналы : 2 канала
Расположение каналов : Front: L R
Частота : 48,0 КГц
Битовая глубина : 16 бит
Метод сжатия : С потерями
Размер потока : 121 Мбайт (9%)
Выравнивание : Разделение по промежуткам
Продолжительность промежутка : 33 мс. (1,00 видеокадр)
Время предзагрузки промежутка : 500 мс.
 
Кто просматривает тему:

Показать сообщения:    

Текущее время: Сегодня 10:54

Часовой пояс: GMT



Вы не можете начинать темы
Вы не можете отвечать на сообщения
Вы не можете редактировать свои сообщения
Вы не можете удалять свои сообщения
Вы не можете голосовать в опросах
Вы не можете прикреплять файлы к сообщениям
Вы не можете скачивать файлы