Я есть гнев / I Am Wrath (2016) DVD-5 | L

 
Автор Сообщение

достали все ®

Пол:

Стаж: 1 год 8 месяцев

Сообщений: 6581



Награды: 12 (Подробнее)

За внесенный вклад в развитие сайта (Количество: 1) Mega Seeder 4 (Количество: 1) Mega Releaser 3 (Количество: 1)
Торрент-статистика

Создавать темы 20-Сен-2016 15:06

[Цитировать]

Информация о фильме
Название: Я есть гнев
Оригинальное название: I Am Wrath
Год выхода: 2016
Жанр: Боевик
Режиссер: Чак Расселл
В ролях: Джон Траволта, Майкл Уррикуа, Ребекка Де Морнэй, Кристофер Мелони, Аманда Шулл, Сэм Трэммелл, Патрик Ст. Эсприт, Луис Да Силва мл., Дорис Моргадо
Описание: История человека, чью жену убили и который, отчаявшись дождаться каких-то действий со стороны полиции, решает сам найти преступника и покарать его.
Страна: США
Студия: Patriot Pictures LLC, Vallelonga Productions, Vengeance is Mine Productions
Продолжительность: 01:30:29
Перевод: Любительский многоголосый
Файл
Кодек: MPEG-2
Качество: DVD-9
Видео: MPEG2, NTSC 16:9 (720x480@853x480) VBR, 23,976 кадра/сек
Звук: Русский DD 2.0 (384 Kbps), Английский DD 5.1 (384 Kbps)

Меню

DVDInfo

Title:
Size: 3.99 Gb ( 4 188 174 KBytes ) - DVD-5
Enabled regions: 1, 2, 3, 4, 5, 6, 7, 8
VTS_01 :
Play Length: 01:30:29
Video: NTSC 16:9 (720x480) VBR, Auto Pan&Scan
Audio:
Russian (Dolby AC3, 2 ch)
English (Dolby AC3, 6 ch)
Menu Video:
NTSC 4:3 (704x480) VBR
Menu English Language Unit :
Root Menu

MediaInfo

Общее
Полное имя : D:ААА2Я есть гневVIDEO_TSVTS_01_1.VOB
Формат : MPEG-PS
Размер файла : 1000 Мбайт
Продолжительность : 20 м.
Режим общего битрейта : Переменный
Общий поток : 6676 Кбит/сек
Видео
Идентификатор : 224 (0xE0)
Формат : MPEG Video
Версия формата : Version 2
Профиль формата : Main@Main
Параметр BVOP формата : Да
Параметр матрицы формата : По умолчанию
Параметр GOP формата : M=3, N=12
Продолжительность : 20 м.
Вид битрейта : Переменный
Битрейт : 5775 Кбит/сек
Максимальный битрейт : 8304 Кбит/сек
Ширина : 720 пикселей
Высота : 480 пикселей
Соотношение сторон : 16:9
Частота кадров : 23,976 кадра/сек
Стандарт вещания : NTSC
Цветовое пространство : YUV
Субдискретизация насыщенности : 4:2:0
Битовая глубина : 8 бит
Тип развёртки : Прогрессивная
Порядок развёртки : 2:3 Pulldown
Метод сжатия : С потерями
Бит/(Пиксели*Кадры) : 0.697
TimeCode_FirstFrame : 00:00:00;00
TimeCode_Source : Group of pictures header
Размер потока : 865 Мбайт (87%)
Аудио #1
Идентификатор : 189 (0xBD)-128 (0x80)
Формат : AC-3
Формат/Информация : Audio Coding 3
Расширение режима : CM (complete main)
Параметр Endianness формата : Big
Режим смешивания : DVD-Video
Продолжительность : 20 м.
Вид битрейта : Постоянный
Битрейт : 384 Кбит/сек
Каналы : 2 канала
Расположение каналов : Front: L R
Частота : 48,0 КГц
Битовая глубина : 16 бит
Метод сжатия : С потерями
Размер потока : 57,5 Мбайт (6%)
Аудио #2
Идентификатор : 189 (0xBD)-129 (0x81)
Формат : AC-3
Формат/Информация : Audio Coding 3
Расширение режима : CM (complete main)
Параметр Endianness формата : Big
Режим смешивания : DVD-Video
Продолжительность : 20 м.
Вид битрейта : Постоянный
Битрейт : 384 Кбит/сек
Каналы : 6 каналов
Расположение каналов : Front: L C R, Side: L R, LFE
Частота : 48,0 КГц
Битовая глубина : 16 бит
Метод сжатия : С потерями
Размер потока : 57,5 Мбайт (6%)
Меню

Скриншоты

Релиз:
[Профиль] [ЛС]
Кто просматривает тему:

Показать сообщения:    

Текущее время: Сегодня 06:07

Часовой пояс: GMT



Вы не можете начинать темы
Вы не можете отвечать на сообщения
Вы не можете редактировать свои сообщения
Вы не можете удалять свои сообщения
Вы не можете голосовать в опросах
Вы не можете прикреплять файлы к сообщениям
Вы не можете скачивать файлы