Я есть гнев / I Am Wrath (2016) BDRemux 1080p | L

 
Автор Сообщение

достали все ®

Пол:

Стаж: 1 год 8 месяцев

Сообщений: 6630



Награды: 12 (Подробнее)

Mega Seeder 3 (Количество: 1) Mega Seeder 5 (Количество: 1) За внесенный вклад в развитие сайта (Количество: 1)
Торрент-статистика

Создавать темы 05-Май-2016 03:39

[Цитировать]

Информация о фильме
Название: Я есть гнев
Оригинальное название: I Am Wrath
Год выхода: 2016
Жанр: Боевик, триллер, драма, криминал
Режиссер: Чак Расселл
В ролях: Джон Траволта, Майкл Уррикуа, Ребекка Де Морнэй, Кристофер Мелони, Аманда Шулл, Сэм Трэммелл, Патрик Ст. Эсприт, Луис Да Силва мл., Дорис Моргадо
О фильме:
История человека, чью жену убили и который, отчаявшись дождаться каких-то действий со стороны полиции, решает сам найти преступника и покарать его.

Страна: США
Студия: Patriot Pictures LLC, Vallelonga Productions, Vengeance is Mine Productions
Продолжительность: 01:31:27
Перевод: Любительский многоголосый (закадровый)
Файл
Кодек: MPEG-4
Качество: BDRemux 1080p
Видео: 1920x1080, 32.6 Mbit/s, 23.976 fps
Звук:
Аудио #01: 48 kHz, AC3, 2.0, 384 Kbps | Любительский многоголосый (закадровый) |
Аудио #02: 48 kHz, DTS-HD MA, 5.1, 2389 kbps | Оригинал |

MI

Общее
Уникальный идентификатор : 208297085006394796901430468949196449340 (0x9CB48F308757B98092B5F04F5A24A63C)
Полное имя : F:VideoI.Am.Wrath.2016.BDREMUX.1080p.ExKinoRay.mkv
Формат : Matroska
Версия формата : Version 4 / Version 2
Размер файла : 22,4 Гбайт
Продолжительность : 1 ч. 30 м.
Общий поток : 35,3 Мбит/сек
Название фильма : I.Am.Wrath.2016.BDREMUX.1080p.ExKinoRay
Дата кодирования : UTC 2016-05-05 01:09:22
Программа кодирования : mkvmerge v8.3.0 ('Over the Horizon') 64bit
Библиотека кодирования : libebml v1.3.1 + libmatroska v1.4.2
Видео
Идентификатор : 1
Формат : AVC
Формат/Информация : Advanced Video Codec
Профиль формата : High@L4.1
Параметр CABAC формата : Да
Параметр ReFrames формата : 4 кадра
Идентификатор кодека : V_MPEG4/ISO/AVC
Продолжительность : 1 ч. 30 м.
Вид битрейта : Постоянный
Битрейт : 32,6 Мбит/сек
Номинальный битрейт : 35,0 Мбит/сек
Ширина : 1920 пикселей
Высота : 1080 пикселей
Соотношение сторон : 16:9
Режим частоты кадров : Постоянный
Частота кадров : 23,976 (24000/1001) кадра/сек
Стандарт вещания : NTSC
Цветовое пространство : YUV
Субдискретизация насыщенности : 4:2:0
Битовая глубина : 8 бит
Тип развёртки : Прогрессивная
Бит/(Пиксели*Кадры) : 0.655
Размер потока : 20,6 Гбайт (92%)
Заголовок : I.Am.Wrath.2016.BDREMUX.1080p.ExKinoRay.***селезень***
Язык : English
Default : Нет
Forced : Нет
Цветовой диапазон : Limited
Основные цвета : BT.709
Характеристики трансфера : BT.709
Коэффициенты матрицы : BT.709
Аудио #1
Идентификатор : 2
Формат : AC-3
Формат/Информация : Audio Coding 3
Расширение режима : CM (complete main)
Параметр Endianness формата : Big
Идентификатор кодека : A_AC3
Продолжительность : 1 ч. 30 м.
Вид битрейта : Постоянный
Битрейт : 384 Кбит/сек
Каналы : 2 канала
Расположение каналов : Front: L R
Частота : 48,0 КГц
Частота кадров : 31,250 кадров/сек (1536 spf)
Метод сжатия : С потерями
Размер потока : 249 Мбайт (1%)
Заголовок : MVO
Язык : Russian
Default : Да
Forced : Нет
Аудио #2
Идентификатор : 3
Формат : DTS
Формат/Информация : Digital Theater Systems
Профиль формата : MA / Core
Режим : 16
Параметр Endianness формата : Big
Идентификатор кодека : A_DTS
Продолжительность : 1 ч. 30 м.
Вид битрейта : Переменный / Постоянный
Битрейт : 2389 Кбит/сек / 1509 Кбит/сек
Каналы : 6 каналов
Расположение каналов : Front: L C R, Side: L R, LFE
Частота : 48,0 КГц
Частота кадров : 93,750 кадра/сек (512 spf)
Битовая глубина : 16 бит
Метод сжатия : Без потерь / Lossy
Размер потока : 1,51 Гбайт (7%)
Язык : English
Default : Нет
Forced : Нет
Меню
00:00:00.000 : en:Chapter 01
00:08:37.683 : en:Chapter 02
00:15:10.117 : en:Chapter 03
00:22:50.869 : en:Chapter 04
00:31:52.410 : en:Chapter 05
00:39:11.140 : en:Chapter 06
00:44:28.624 : en:Chapter 07
00:51:19.117 : en:Chapter 08
00:59:18.346 : en:Chapter 09
01:07:14.030 : en:Chapter 10
01:15:20.307 : en:Chapter 11
01:21:05.193 : en:Chapter 12

Скриншоты

[Профиль] [ЛС]
Кто просматривает тему:

Показать сообщения:    

Текущее время: Сегодня 14:08

Часовой пояс: GMT



Вы не можете начинать темы
Вы не можете отвечать на сообщения
Вы не можете редактировать свои сообщения
Вы не можете удалять свои сообщения
Вы не можете голосовать в опросах
Вы не можете прикреплять файлы к сообщениям
Вы не можете скачивать файлы