Я его слепила (Михаил Жерневский) [2012, Россия, мелодрама, HDTV 1080i]

 
Автор Сообщение

TorrentFilm ®

Пол:

Стаж: 2 года

Сообщений: 7741



Награды: Нет

Торрент-статистика

Создавать темы 01-Янв-2016 00:11

[Цитировать]

Я его слепила
Жанр: мелодрама
Год выпуска: 2012
Продолжительность: 01:38:18
Режиссёр: Михаил Жерневский
В ролях: Олеся Фаттахова, Сергей Мухин, Татьяна Чердынцева, Ольга Клебанович, Дмитрий Мухин, Евгений Никитин, Денис Паршин, Виктор Синайский
Описание: Катя работает консультантом в свадебном салоне. Перед ней проходит череда женихов и невест; она помогает им сделать самым счастливым главный день в жизни, но, как обычно это бывает, на свою личную жизнь времени ей не хватает. Однажды к Кате обращается подруга Лера — взбалмошная дочка владельца крупной компании. Лера влюблена в своего коллегу — обычного программиста Гришу, обаятельного недотёпу. Но препятствием к её счастью является отец — деспот, который, не предавая значения чувствам дочки, сам решил подыскать ей жениха. Лера просит Катю научить Гришу «держать марку» и превратить его в первоклассного жениха, на которого бы папаша обратил внимание. Но Лера недоговаривает: на самом деле Гриша ничего не подозревает о её планах на предстоящую помолвку. Лера уверяет его, что «перемена внешности нужна для того, чтобы, он смог представить свой гениальный бизнес-план на предстоящем совете директоров». Катя соглашается помочь подруге, но на первой же встрече понимает, что Гриша - «очень запущенный случай»…
Доп. информация: Файл чистый. Без посторонних надписей. Выкладывается, как есть.
Релиз -
Семпл: http://multi-up.com/827241
Качество видео: HDTV 1080i
Формат видео: MPEG-TS
Видео: AVC, 1920x1080 (16:9), 25 fps, 7836 Kbps, 0.151 bit/pixel
Аудио: MPEG Audio, 48 kHz, stereo, 192 Kbps

MI

ID : 1 (0x1)
Complete name : Я его слепила (Михаил Жерневский) (2012, Мелодрама, HDTV) (MYDIMKA).ts
Format : MPEG-TS
File size : 5.81 GiB
Duration : 1h 38mn
Overall bit rate mode : Variable
Overall bit rate : 8 456 Kbps
Video
ID : 2911 (0xB5F)
Menu ID : 1 (0x1)
Format : AVC
Format/Info : Advanced Video Codec
Format profile : High@L4.0
Format settings, CABAC : Yes
Format settings, ReFrames : 4 frames
Codec ID : 27
Duration : 1h 38mn
Bit rate : 7 845 Kbps
Width : 1 920 pixels
Height : 1 080 pixels
Display aspect ratio : 16:9
Frame rate : 25.000 fps
Color space : YUV
Chroma subsampling : 4:2:0
Bit depth : 8 bits
Scan type : MBAFF
Bits/(Pixel*Frame) : 0.151
Stream size : 5.39 GiB (93%)
Audio
ID : 2912 (0xB60)
Menu ID : 1 (0x1)
Format : MPEG Audio
Format version : Version 1
Format profile : Layer 2
Codec ID : 3
Duration : 1h 38mn
Bit rate mode : Constant
Bit rate : 192 Kbps
Channel(s) : 2 channels
Sampling rate : 48.0 KHz
Compression mode : Lossy
Stream size : 135 MiB (2%)
Language : Russian

Скриншот с названием фильма

Скриншоты


[Профиль] [ЛС]
Кто просматривает тему:

Форум Тема Автор Размер
Фильмы 2013 года Ты хочешь, чтобы я его убил? / Uwantme2killhim? (2013) WEB-DL 720p от CINEMANIA | P sergej644 2.28 GB
Показать сообщения:    

Текущее время: Сегодня 04:26

Часовой пояс: GMT



Вы не можете начинать темы
Вы не можете отвечать на сообщения
Вы не можете редактировать свои сообщения
Вы не можете удалять свои сообщения
Вы не можете голосовать в опросах
Вы не можете прикреплять файлы к сообщениям
Вы не можете скачивать файлы