Я другая / Я буду другой / Ich bin die Andere / I Am the Other Woman (Маргарете фон Тротта / Margarethe von Trotta) [2006, Германия, драма, DVDRip] VO (Денис Строев) + Sub Rus + Original Ger

 
Автор Сообщение

TorrentFilm ®

Пол:

Стаж: 2 года

Сообщений: 7741



Награды: Нет

Торрент-статистика

Создавать темы 15-Янв-2016 00:08

[Цитировать]

Я другая / Я буду другой / Ich bin die Andere / I Am the Other Woman
Страна: Германия
Жанр: драма
Год выпуска: 2006
Продолжительность: 01:40:09
Перевод: Одноголосый закадровый - Денис Строев
Cубтитры: русские (_sister_), английские
Оригинальная аудиодорожка: немецкий

Режиссер: Маргарете фон Тротта / Margarethe von Trotta
В ролях: Катя Риманн, Армин Мюллер-Шталь, Карин Дор, Аугуст Диль, Бернадетт Хирваген, Барбара Ауэр, Дитер Лазер, Петер Лерхбаумер, Бен Саад, Феликс Мюллер
Описание: Успешный молодой инженер Роберт проводит в отеле незабываемую ночь с таинственной леди в красном. На следующий день они встречаются в юридической фирме, где Каролин работает над контрактом Роберта, но она, кажется, ничего не помнит об их прошлой встрече. Чем больше Роберт проникает в болезненный мир Каролин и темные секреты ее семьи, тем более опасной становится его жизнь ... Немецкий бунтарь и сподвижница Фассбиндера и Шлёндорфа, Маргарете фон Тротта разворачивает тревожную историю одержимости и семейных тайн.
Качество видео: DVDRip
Формат видео: AVI
Видео: 704x304 (2.32:1), 25 fps, XviD build 73 ~1879 kbps avg, 0.35 bit/pixel
Аудио: 48 kHz, AC3 Dolby Digital, 2/0 (L,R) ch, ~192 kbps - одноголосый
Аудио: 48 kHz, AC3 Dolby Digital, 2/0 (L,R) ch, ~192 kbps - оригинал (отдельным файлом)

MediaInfo

Общее
Полное имя : H:\Ich.bin.die.Andere.2006.dvdrip_[1.46]_[teko]\Ich.bin.die.Andere.2006.dvdrip_[1.46].avi
Формат : AVI
Формат/Информация : Audio Video Interleave
Размер файла : 1,46 Гбайт
Продолжительность : 1 ч. 40 м.
Общий поток : 2082 Кбит/сек
Программа кодирования : VirtualDubMod 1.5.10.3 | www.virtualdub-fr.org || (build 2550/release)
Библиотека кодирования : VirtualDubMod build 2550/release
Видео
Идентификатор : 0
Формат : MPEG-4 Visual
Профиль формата : Advanced Simple@L5
Параметр BVOP формата : 1
Параметр QPel формата : Нет
Параметр GMC формата : Без точки перехода
Параметр матрицы формата : Выборочная
Идентификатор кодека : XVID
Идентификатор кодека/Подсказка : XviD
Продолжительность : 1 ч. 40 м.
Битрейт : 1880 Кбит/сек
Ширина : 704 пикселя
Высота : 304 пикселя
Соотношение сторон : 2,35:1
Частота кадров : 25,000 кадров/сек
Цветовое пространство : YUV
Субдискретизация насыщенности : 4:2:0
Битовая глубина : 8 бит
Тип развёртки : Прогрессивная
Метод сжатия : С потерями
Бит/(Пиксели*Кадры) : 0.351
Размер потока : 1,31 Гбайт (90%)
Библиотека кодирования : XviD 73
Аудио
Идентификатор : 1
Формат : AC-3
Формат/Информация : Audio Coding 3
Расширение режима : CM (complete main)
Параметр Endianness формата : Big
Идентификатор кодека : 2000
Продолжительность : 1 ч. 40 м.
Вид битрейта : Постоянный
Битрейт : 192 Кбит/сек
Каналы : 2 канала
Расположение каналов : Front: L R
Частота : 48,0 КГц
Битовая глубина : 16 бит
Метод сжатия : С потерями
Размер потока : 138 Мбайт (9%)
Выравнивание : Разделение по промежуткам
Продолжительность промежутка : 40 мс. (1,00 видеокадр)
Время предзагрузки промежутка : 500 мс.
Релиз группы:
--
[Профиль] [ЛС]
Кто просматривает тему:

Показать сообщения:    

Текущее время: Сегодня 13:04

Часовой пояс: GMT



Вы не можете начинать темы
Вы не можете отвечать на сообщения
Вы не можете редактировать свои сообщения
Вы не можете удалять свои сообщения
Вы не можете голосовать в опросах
Вы не можете прикреплять файлы к сообщениям
Вы не можете скачивать файлы