Я – вратарь / Der Goalie bin ig (2014) BDRip 720p | A

 
Автор Сообщение

sergej644 ®

Пол:

Стаж: 4 года 11 месяцев

Сообщений: 6041

Откуда: Soviet Union



Награды: Нет

Торрент-статистика

Создавать темы 07-Ноя-2014 13:28

[Цитировать]

Я – вратарь / Der Goalie bin ig (2014) BDRip 720p | A
-Год выпуска: 2014
Производство: Швейцария / C-Films AG, Carac Films
Жанр: драма, мелодрама
Режиссер: Сабина Босс
Сценарий: Сабина Босс, Жасмин Хоч, Pedro Lenz
Продюсер: Майкл Стайгер, Анита Вассер, Тереза Шерер-Коллбрюннер
Актеры: Михаэль Нойеншвандер, Соня Рисен, Маркус Сигнер, Паскаль Улли
Описание:
Голи был только что выпущен из тюрьмы, где провел год, держа рот на замке, выгораживая своего лучшего друга Ули. Выйдя на свободу Голи возвращается в свой родной городок, где хочет начать новую жизнь, но не всё так просто, как бы не хотелось всё забыть, ему придется столкнуться лицом к лицу со своим прошлым…
Перевод: Авторский (одноголосый закадровый) [Е. Гаевский] (перевод kon2011)
Вид субтитров: Вшитые отключаемые
Язык субтитров: Русский, Английский, Французский, Немецкий

Дата мировой премьеры: 6 февраля 2014
Продолжительность: 01:32:54
Качество: BDRip [720p]
Видео: MPEG-4 AVC/H.264, 1280x538 (2.40:1), 6 600 kbps, 23.976 fps
Аудио 1: Русский - DTS / 5.1 / 1509 Kbps / 48.0 KHz - Авторский (одноголосый закадровый) [Е. Гаевский]
Аудио 2: Английский - DTS / 5.1 / 1509 Kbps / 48.0 KHz - Оригинальный-

MediaInfo

General
Unique ID : 242868833795618005662583455132768759432 (0xB6B6D6013F6AC5739569D7D7B2C76E88)
Complete name : E:Der.Goalie.bin.ig.2014.BDRip.720p.A.mkv
Format : Matroska
Format version : Version 4 / Version 2
File size : 6.38 GiB
Duration : 1h 32mn
Overall bit rate : 9 836 Kbps
Movie name : Der Goalie bin ig (2014)
Encoded date : UTC 2014-11-07 11:08:28
Writing application : mkvmerge v7.3.0 ('Nouages') 64bit built on Oct 22 2014 18:53:34
Writing library : libebml v1.3.0 + libmatroska v1.4.1
_STATISTICS_WRITING_APP : mkvmerge v7.3.0 ('Nouages') 64bit built on Oct 22 2014 18:53:34
_STATISTICS_WRITING_DATE_UTC : 2014-11-07 11:08:28
_STATISTICS_TAGS : BPS DURATION NUMBER_OF_FRAMES NUMBER_OF_BYTES
DURATION : 01:32:54.710000000
NUMBER_OF_FRAMES : 522632
NUMBER_OF_BYTES : 1051535584
Attachment : Yes
Video
ID : 1
Format : AVC
Format/Info : Advanced Video Codec
Format profile : High@L4.1
Format settings, CABAC : Yes
Format settings, ReFrames : 9 frames
Codec ID : V_MPEG4/ISO/AVC
Duration : 1h 32mn
Bit rate : 6 622 Kbps
Width : 1 280 pixels
Height : 538 pixels
Display aspect ratio : 2.40:1
Original display aspect ratio : 2.40:1
Frame rate mode : Constant
Frame rate : 23.976 fps
Color space : YUV
Chroma subsampling : 4:2:0
Bit depth : 8 bits
Scan type : Progressive
Bits/(Pixel*Frame) : 0.401
Stream size : 4.30 GiB (67%)
Title : Der Goalie bin ig (2014)
Writing library : x264 core 142 r2479kMod dd79a61
Encoding settings : cabac=1 / ref=9 / deblock=1:-3:-3 / analyse=0x3:0x133 / me=umh / subme=11 / psy=1 / fade_compensate=0.00 / psy_rd=1.00:0.00 / mixed_ref=1 / me_range=32 / chroma_me=1 / trellis=2 / 8x8dct=1 / cqm=0 / deadzone=21,11 / fast_pskip=1 / chroma_qp_offset=-2 / threads=12 / lookahead_threads=3 / sliced_threads=0 / nr=0 / decimate=1 / interlaced=0 / bluray_compat=0 / constrained_intra=0 / fgo=0 / bframes=10 / b_pyramid=2 / b_adapt=2 / b_bias=0 / direct=3 / weightb=1 / open_gop=0 / weightp=2 / keyint=250 / keyint_min=23 / scenecut=40 / intra_refresh=0 / rc=crf / mbtree=0 / crf=16.0000 / qcomp=0.65 / qpmin=0 / qpmax=69 / qpstep=4 / ip_ratio=1.25 / pb_ratio=1.20 / aq=1:0.60
Language : gsw
Default : No
Forced : No
_STATISTICS_WRITING_APP : mkvmerge v7.3.0 ('Nouages') 64bit built on Oct 22 2014 18:53:34
_STATISTICS_WRITING_DATE_UTC : 2014-11-07 11:08:28
_STATISTICS_TAGS : BPS DURATION NUMBER_OF_FRAMES NUMBER_OF_BYTES
DURATION : 01:32:54.736000000
NUMBER_OF_FRAMES : 133660
NUMBER_OF_BYTES : 4748319927
Audio #1
ID : 2
Format : DTS
Format/Info : Digital Theater Systems
Mode : 16
Format settings, Endianness : Big
Codec ID : A_DTS
Duration : 1h 32mn
Bit rate mode : Constant
Bit rate : 1 509 Kbps
Channel(s) : 6 channels
Channel positions : Front: L C R, Side: L R, LFE
Sampling rate : 48.0 KHz
Bit depth : 24 bits
Compression mode : Lossy
Stream size : 1 003 MiB (15%)
Title : AVO [Gaevsky tr. by kon2011]
Language : Russian
Default : Yes
Forced : No
Audio #2
ID : 3
Format : DTS
Format/Info : Digital Theater Systems
Mode : 16
Format settings, Endianness : Big
Codec ID : A_DTS
Duration : 1h 32mn
Bit rate mode : Constant
Bit rate : 1 509 Kbps
Channel(s) : 6 channels
Channel positions : Front: L C R, Side: L R, LFE
Sampling rate : 48.0 KHz
Bit depth : 16 bits
Compression mode : Lossy
Delay relative to video : 11ms
Stream size : 1 003 MiB (15%)
Language : gsw
Default : No
Forced : No
Text #1
ID : 4
Format : UTF-8
Codec ID : S_TEXT/UTF8
Codec ID/Info : UTF-8 Plain Text
Title : kon2011
Language : Russian
Default : No
Forced : No
Text #2
ID : 5
Format : UTF-8
Codec ID : S_TEXT/UTF8
Codec ID/Info : UTF-8 Plain Text
Language : English
Default : No
Forced : No
Text #3
ID : 6
Format : UTF-8
Codec ID : S_TEXT/UTF8
Codec ID/Info : UTF-8 Plain Text
Language : French
Default : No
Forced : No
Text #4
ID : 7
Format : UTF-8
Codec ID : S_TEXT/UTF8
Codec ID/Info : UTF-8 Plain Text
Language : German
Default : No
Forced : No
Menu
00:00:00.000 : en:00:00:00.000
00:08:23.378 : en:00:08:23.378
00:15:07.657 : en:00:15:07.657
00:24:29.927 : en:00:24:29.927
00:32:37.455 : en:00:32:37.455
00:39:25.154 : en:00:39:25.154
00:46:54.979 : en:00:46:54.979
00:56:18.208 : en:00:56:18.208
01:04:22.817 : en:01:04:22.817
01:11:57.647 : en:01:11:57.647
01:18:29.455 : en:01:18:29.455
01:25:19.614 : en:01:25:19.614
[Профиль] [ЛС]
Кто просматривает тему:

Показать сообщения:    

Текущее время: Сегодня 01:09

Часовой пояс: GMT



Вы не можете начинать темы
Вы не можете отвечать на сообщения
Вы не можете редактировать свои сообщения
Вы не можете удалять свои сообщения
Вы не можете голосовать в опросах
Вы не можете прикреплять файлы к сообщениям
Вы не можете скачивать файлы