Я видел Солнце / Günesi gördüm (Махсун Кырмызыгюль / Mahsun KIRMIZIGüL) [2009, Турция, Драма, HDRip] MVO (IBS Distribution)

 
Автор Сообщение

TorrentFilm ®

Пол:

Стаж: 1 год 11 месяцев

Сообщений: 7741



Награды: Нет

Торрент-статистика

Создавать темы 24-Мар-2015 00:03

[Цитировать]

Я видел Солнце / Günesi gördüm
Страна: Турция, BOYUT FILM
Жанр: Драма
Год выпуска: 2009
Продолжительность: 01:54:39
Перевод: Профессиональный (многоголосый закадровый) Студия звукозаписи IBS Distribution
Cубтитры: нет
Оригинальная аудиодорожка: Турецкий

Режиссер: Махсун Кырмызыгюль / Mahsun KIRMIZIGüL
В ролях: Али Сюрмелы, Али Тутал, Альпер Кул, Алтан Еркекли, Бугра Гюльсой, Джем Аксакал, Джемаль Токташ, Джезми Баскын, Джихат Тамер, Демет Евгар, Дениз Орал, Эмре Кынай, Эрол Демирёз, Эрол Гюнайдын, Ханде Субаши, Маджит Сонкан, Махсун Кырмызыгюль, Мендерес Саманджилар, Мурат Юналмыш, Нурсели Идиз, Шериф Сезер, Йилдыз Кюльтюр, Йигит Озшенер, Ытыр Эзен, Камиль Сёнмез, Сапр Апак, Юмит Окур, Зафер Эргин, Джансу Актай, Аслыхан Капаншахин
Описание: Фильм “Güneşi Gördüm” - второй режиссерский опыт Махсуна Кырмызыгюля. Этот фильм - история большой семьи, волею судьбы вынужденной покинуть десятилетиями обжитые родные земли на востоке Турции, где идет многолетняя война, от которой люди стараются укрыться в горных пещерах. Одна ветвь семьи отправляется в Стамбул, другая, с помощью контрадандистов, решает нелегально бежать в Норвегию. Их участь, как и судьба других эмигрантов, нелегка — с трудом найдя хоть какую-нибудь работу, они живут как беженцы, готовые в любую минуту сорваться с места. Тем временем, оставшаяся в Стамбуле семья несчастлива по-своему: героиня картины переносит операцию из-за осложнений, возникших во время беременности, а ее сын сходится с компанией трансвеститов, которые стараются внушить ему новую систему ценностей. Родители в ужасе от увлечения сына и стараются вырвать его из позорного окружения.
Картина поднимает множество проблем, характерных для современной Турции,– это и курдский вопрос, и отставание восточных регионов страны от западных, нелегальная эмиграция в страны Европы, проблема ранних и родственных браков и дискриминация сексуальных меньшинств. Смотреть этот фильм непросто, но обязательно стоит всем тем, кто хочет увидеть Турцию изнутри, а не только из окон туристического автобуса.
Доп. информация: Релиз киноклуба "Феникс.
Автор рипа и синхронизация звука - shachter58.
Профессиональный многоголосый закадровый перевод (Студия звукозаписи IBS Distribution)
Выражаем огромную благодарность за запись данного видео
и предоставление звуковой дорожки форумчанину N_Reyes

Сэмпл: http://multi-up.com/1039913

Качество видео: HDRip
Формат видео: AVI
Видео: MPEG-4 Visual, XviD, 704x304 (1:2.35), 1 419 Kbps, 25.000 fps, Bits/(Pixel*Frame): 0.227
Аудио: MPEG Audio, MP3, 2 ch, 44.1 KHz, 192 Kbps - Русский
Аудио 2: MPEG Audio, MP3, 2 ch, 44.1 KHz, 192 Kbps - Турецкий

MediaInfo

General
Complete name : F:\КИНО ТУРЦИИ\YA.VIDEL.SOLNZE.2009\Ya.videl.solnze.turk.RUSS.2009.HDRip.shachter58.avi
Format : AVI
Format/Info : Audio Video Interleave
File size : 1.45 GiB
Duration : 1h 54mn
Overall bit rate : 1 814 Kbps
Video #0
ID : 0
Format : MPEG-4 Visual
Format profile : Advanced Simple@L5
Format settings, BVOP : 2
Format settings, QPel : No
Format settings, GMC : No warppoints
Format settings, Matrix : Default (H.263)
Codec ID : XVID
Codec ID/Hint : XviD
Duration : 1h 54mn
Bit rate : 1 419 Kbps
Width : 704 pixels
Height : 304 pixels
Display aspect ratio : 2.35:1
Frame rate : 25.000 fps
Color space : YUV
Chroma subsampling : 4:2:0
Bit depth : 8 bits
Scan type : Progressive
Compression mode : Lossy
Bits/(Pixel*Frame) : 0.265
Stream size : 1.14 GiB (78%)
Writing library : XviD 1.1.2 (UTC 2006-11-01)
Audio #1
ID : 1
Format : MPEG Audio
Format version : Version 1
Format profile : Layer 3
Codec ID : 55
Codec ID/Hint : MP3
Duration : 1h 53mn
Bit rate mode : Constant
Bit rate : 192 Kbps
Channel(s) : 2 channels
Sampling rate : 44.1 KHz
Compression mode : Lossy
Stream size : 156 MiB (10%)
Alignment : Split accross interleaves
Interleave, duration : 40 ms (1.01 video frame)
Interleave, preload duration : 500 ms
Audio #2
ID : 2
Format : MPEG Audio
Format version : Version 1
Format profile : Layer 3
Mode : Joint stereo
Mode extension : MS Stereo
Codec ID : 55
Codec ID/Hint : MP3
Duration : 1h 53mn
Bit rate mode : Constant
Bit rate : 192 Kbps
Channel(s) : 2 channels
Sampling rate : 44.1 KHz
Compression mode : Lossy
Stream size : 156 MiB (10%)
Alignment : Split accross interleaves
Interleave, duration : 40 ms (1.01 video frame)
Interleave, preload duration : 500 ms

Скриншот c названием фильма

[Профиль] [ЛС]

Создавать темы 06-Авг-2015 22:40 (спустя 4 месяца 13 дней)

Топик был перенесен из форума Фильмы до 2014 года в форум Фильмы до 2012 года
sergej644
 

Создавать темы 12-Июн-2016 08:49 (спустя 1 год 2 месяца)

Топик был перенесен из форума Фильмы 2011 года в форум Фильмы 2009 года
Russian Mafia
 
Кто просматривает тему:

Показать сообщения:    

Текущее время: Сегодня 20:04

Часовой пояс: GMT



Вы не можете начинать темы
Вы не можете отвечать на сообщения
Вы не можете редактировать свои сообщения
Вы не можете удалять свои сообщения
Вы не можете голосовать в опросах
Вы не можете прикреплять файлы к сообщениям
Вы не можете скачивать файлы